Недоносок / Slink (2013) WEB-DL 720p | L2

 
Автор Сообщение

достали все ®

Пол:

Стаж: 1 год 8 месяцев

Сообщений: 6515



Награды: 12 (Подробнее)

Mega Releaser 2 (Количество: 1) Mega Seeder 3 (Количество: 1) Mega Seeder 4 (Количество: 1)
Торрент-статистика

Создавать темы 21-Май-2015 10:17

[Цитировать]

Информация о фильме
Название: Недоносок
Оригинальное название: Slink
Год выхода: 2013
Жанр: ужасы, триллер
Режиссер: Дэвид Райан Кит
В ролях: Джулия Фэй, Джейд Брюс, Арт Робертс, Дона Ли Хейсинг, Энтони Дель Негро, Жаклин Ларсен, Даника Галиндо, Джаэль Ллойд, Косондра Сьорстром, Марилин Брукс
О фильме: В сельском городе Викенхэвен психически больной владелец солярия причастен к исчезновениям нескольких молодых невинных девушек, в то время как его жена, дизайнер экзотических кошельков, спокойно закрывает глаза на его злой норов.

Выпущено: США / Beyond Filth Productions, Dismal Productions, Frolic Pictures, Van Swall Media Group
Продолжительность: 01:20:09
Озвучивание: Любительское (двухголосное) [den904 & DeadSno], перевод [chup]
Файл
Формат: MKV
Качество: WEB-DL 720p
Видео: 3839 kb/s, 1280x714
Аудио: AC3, 192 kb/s (2 ch)

MI

Format : Matroska
Format version : Version 4 / Version 2
File size : 2.30 GiB
Duration : 1h 20mn
Overall bit rate : 4 113 Kbps
Encoded date : UTC 2015-05-20 21:03:18
Writing application : mkvmerge v6.1.0 ('Old Devil') built on Mar 4 2013 09:10:42
Writing library : libebml v1.3.0 + libmatroska v1.4.0
Video
ID : 1
Format : AVC
Format/Info : Advanced Video Codec
Format profile : High@L3.1
Format settings, CABAC : No
Format settings, ReFrames : 2 frames
Codec ID : V_MPEG4/ISO/AVC
Duration : 1h 20mn
Bit rate : 3 839 Kbps
Width : 1 280 pixels
Height : 714 pixels
Display aspect ratio : 16:9
Frame rate : 23.976 fps
Color space : YUV
Chroma subsampling : 4:2:0
Bit depth : 8 bits
Scan type : Progressive
Bits/(Pixel*Frame) : 0.175
Stream size : 2.15 GiB (93%)
Language : English
Default : Yes
Forced : No
Color primaries : BT.709-5, BT.1361, IEC 61966-2-4, SMPTE RP177
Transfer characteristics : BT.709-5, BT.1361
Matrix coefficients : BT.709-5, BT.1361, IEC 61966-2-4 709, SMPTE RP177
Audio
ID : 2
Format : AC-3
Format/Info : Audio Coding 3
Mode extension : CM (complete main)
Format settings, Endianness : Big
Codec ID : A_AC3
Duration : 1h 20mn
Bit rate mode : Constant
Bit rate : 192 Kbps
Channel(s) : 2 channels
Channel positions : Front: L R
Sampling rate : 48.0 KHz
Bit depth : 16 bits
Compression mode : Lossy
Stream size : 110 MiB (5%)
Language : Russian
Default : Yes
Forced : No

Скриншоты



[Профиль] [ЛС]
Кто просматривает тему:

Форум Тема Автор Размер
Фильмы 2013 года Недоносок / Slink (Дэвид Райан Кит ) [2013, ужасы, триллер] WEB-DLRip | L2 BOSS 1.37 GB
Показать сообщения:    

Текущее время: Сегодня 00:39

Часовой пояс: GMT



Вы не можете начинать темы
Вы не можете отвечать на сообщения
Вы не можете редактировать свои сообщения
Вы не можете удалять свои сообщения
Вы не можете голосовать в опросах
Вы не можете прикреплять файлы к сообщениям
Вы не можете скачивать файлы