Недетские игры / Come Out and Play (2012) BDRip 720p от New-Team | P | лицензия

 
Автор Сообщение

sergej644 ®

Пол:

Стаж: 4 года 11 месяцев

Сообщений: 6043

Откуда: Soviet Union



Награды: Нет

Торрент-статистика

Создавать темы 15-Ноя-2014 18:18

[Цитировать]

«Выходи, выходи, где ты спрятался? Выходи - поиграем» -Страна: Мексика / Canana, Videocine S.A. de C.V.
Жанр: триллер, ужасы
Год выпуска: 2012
Продолжительность: 01:26:49
Перевод: Профессиональный (многоголосый закадровый)
Cубтитры: English (SDH)
Оригинальная аудиодорожка: нет
Режиссер: Макинов / Makinov
В ролях: Винесса Шоу, Эбон Мосс-Бакрак, Даниэль Хименес Качо, Херардо Тарасена, Алехандро Альварес
Описание: Молодая супружеская пара, Бет и Фрэнсис, находясь в отпуске, отправляются на красивый, но очень отдаленный остров. Бет беременна, и молодожены хотят насладиться последним своим совместным отдыхом перед рождением ребенка. По прибытии они замечают, что, несмотря на огромное количество местных детей, взрослые здесь практически отсутствуют. Первоначально они списывают этот факт на недавно прошедший фестиваль, но очень скоро понимают, что есть другое, более зловещее всему объяснение. И теперь они оба должны противостоять террору и принимать опасные и сложные решения, чтобы попытаться убраться с этого острова живыми.

Качество: BDRip 720p / DVD5 R5 - лицензионный диск от CD Land + Come.Out.and.Play.2012.Blu.Ray.720p.CINEMANIA.mkv
Формат: MKV
Видео: 1280х574 (2.25:1), MPEG-4 AVC, 4 780 Kbps / 23,976 fps / bit/pix=0.271
Аудио 1: Russian: 48 kHz, AC3, 3/2 (L,C,R,l,r) + LFE ch, 448.00 kbps constant | MVO лицензия
Аудио 2: Russian: 48 kHz, AC3, 2/0 (L,C) ch, 192.00 kbps constant | VO den904
Аудио 3: English / AC3 / 5.1 / 48 kHz / 640 kbps | Original
Формат субтитров: SoftSub (srt)
Дополнительно: Фильм разбит на главы, как на оригинальном Blu-ray диске.
Раздача от:

MediaInfo

General
Format : Matroska
Format version : Version 4 / Version 2
File size : 3.75 GiB
Duration : 1h 26mn
Overall bit rate : 6 183 Kbps
Encoded date : UTC 2014-11-15 16:48:46
Writing application : mkvmerge v7.2.0 ('On Every Street') 64bit built on Sep 13 2014 15:52:10
Writing library : libebml v1.3.0 + libmatroska v1.4.1
DURATION : 01:26:49.952000000
NUMBER_OF_FRAMES : 162811
NUMBER_OF_BYTES : 291757312
_STATISTICS_WRITING_APP : mkvmerge v7.2.0 ('On Every Street') 64bit built on Sep 13 2014 15:52:10
_STATISTICS_WRITING_DATE_UTC : 2014-11-15 16:48:46
_STATISTICS_TAGS : BPS DURATION NUMBER_OF_FRAMES NUMBER_OF_BYTES
Video
ID : 1
Format : AVC
Format/Info : Advanced Video Codec
Format profile : High@L4.1
Format settings, CABAC : Yes
Format settings, ReFrames : 11 frames
Codec ID : V_MPEG4/ISO/AVC
Duration : 1h 26mn
Bit rate : 4 780 Kbps
Width : 1 280 pixels
Height : 574 pixels
Display aspect ratio : 2.25:1
Frame rate mode : Constant
Frame rate : 23.976 fps
Color space : YUV
Chroma subsampling : 4:2:0
Bit depth : 8 bits
Scan type : Progressive
Bits/(Pixel*Frame) : 0.271
Stream size : 2.90 GiB (77%)
Language : English
Default : Yes
Forced : No
DURATION : 01:26:50.205000000
NUMBER_OF_FRAMES : 124920
NUMBER_OF_BYTES : 3191508178
_STATISTICS_WRITING_APP : mkvmerge v7.2.0 ('On Every Street') 64bit built on Sep 13 2014 15:52:10
_STATISTICS_WRITING_DATE_UTC : 2014-11-15 16:48:46
_STATISTICS_TAGS : BPS DURATION NUMBER_OF_FRAMES NUMBER_OF_BYTES
Audio #1
ID : 2
Format : AC-3
Format/Info : Audio Coding 3
Mode extension : CM (complete main)
Format settings, Endianness : Big
Codec ID : A_AC3
Duration : 1h 26mn
Bit rate mode : Constant
Bit rate : 448 Kbps
Channel(s) : 6 channels
Channel positions : Front: L C R, Side: L R, LFE
Sampling rate : 48.0 KHz
Bit depth : 16 bits
Compression mode : Lossy
Stream size : 278 MiB (7%)
Title : MVO
Language : Russian
Default : Yes
Forced : No
Audio #2
ID : 3
Format : AC-3
Format/Info : Audio Coding 3
Mode extension : CM (complete main)
Format settings, Endianness : Big
Codec ID : A_AC3
Duration : 1h 26mn
Bit rate mode : Constant
Bit rate : 192 Kbps
Channel(s) : 2 channels
Channel positions : Front: L R
Sampling rate : 48.0 KHz
Bit depth : 16 bits
Compression mode : Lossy
Stream size : 119 MiB (3%)
Title : den904
Language : Russian
Default : No
Forced : No
Audio #3
ID : 4
Format : AC-3
Format/Info : Audio Coding 3
Mode extension : CM (complete main)
Format settings, Endianness : Big
Codec ID : A_AC3
Duration : 1h 26mn
Bit rate mode : Constant
Bit rate : 640 Kbps
Channel(s) : 6 channels
Channel positions : Front: L C R, Side: L R, LFE
Sampling rate : 48.0 KHz
Bit depth : 16 bits
Compression mode : Lossy
Stream size : 398 MiB (10%)
Language : English
Default : No
Forced : No
Text
ID : 5
Format : UTF-8
Codec ID : S_TEXT/UTF8
Codec ID/Info : UTF-8 Plain Text
Language : English
Default : No
Forced : No
Menu
00:00:00.000 : en:01
00:06:42.986 : en:02
00:13:09.247 : en:03
00:20:03.160 : en:04
00:27:04.832 : en:05
00:36:09.209 : en:06
00:42:04.480 : en:07
00:48:27.154 : en:08
00:57:30.947 : en:09
01:05:00.563 : en:10
01:11:17.607 : en:11
01:19:16.961 : en:12

Скриншоты:

[Профиль] [ЛС]

Создавать темы 06-Авг-2015 22:58 (спустя 8 месяцев 21 день)

Топик был перенесен из форума Фильмы до 2014 года в форум Фильмы 2012 года
sergej644
 
Показать сообщения:    

Текущее время: Сегодня 16:42

Часовой пояс: GMT



Вы не можете начинать темы
Вы не можете отвечать на сообщения
Вы не можете редактировать свои сообщения
Вы не можете удалять свои сообщения
Вы не можете голосовать в опросах
Вы не можете прикреплять файлы к сообщениям
Вы не можете скачивать файлы