Невыносимая жестокость / Intolerable Cruelty (2003) BDRip 1080p от NNNB | D, A

 
Автор Сообщение

Russian Mafia ®

Пол:

Стаж: 1 год 8 месяцев

Сообщений: 4257



Награды: 10 (Подробнее)

Top Releaser 5 (Количество: 1) Mega Seeder 5 (Количество: 1) Mega Seeder 3 (Количество: 1)
Торрент-статистика

Создавать темы 24-Мар-2016 14:36

[Цитировать]

Невыносимая жестокость / Intolerable Cruelty
«Он привык побеждать. Она не любит проигрывать»
Русское название: Невыносимая жестокость
Оригинальное название: Intolerable Cruelty
Год выпуска: 2003
Жанр: мелодрама, комедия, криминал
Выпущено: США
Режиссер: Джоэл Коэн, Итан Коэн
В ролях: Джордж Клуни , Кэтрин Зета-Джонс , Джеффри Раш , Седрик «Развлекатель» , Эдвард Херрманн , Пол Адельштейн , Ричард Дженкинс , Билли Боб Торнтон , Джулия Даффи , Джонатан Хэдари , Том Элдридж , Стэйси Трэвис
Перевод: Дублированный, Авторский одноголосый

Сюжет фильма:
У знаменитого адвоката Майлза Масси есть все - слава, деньги, благодарная клиентура и брачный контракт, названный в его честь. Но Майлз чувствует, что ему не хватает поединка с достойным врагом. Судьба сводит его с соблазнительной Мэрилин Рексрот, брачной аферисткой, которая собирается развестись с его клиентом и при этом значительно пополнить свой банковский счет.
И пусть в этот раз ей не повезло - она тут же находит новую жертву, нефтяного магната Дойла, и начинает игру, в которой Майлзу придется еще не раз удивляться...

Качество: BDRip 1080p
Формат: AVC (библиотека кодирования x.264)
Контейнер (Расширение): MKV
Видео: 1920x1040, 14212 Кбит/сек, 23,976 кадр/сек, 0,297 Бит/[Пиксели*Кадры]
Аудио №1: русский / AC3 / 5.1 / 48 kHz / 448 kbps / 16 bit |Дублированный|
Аудио №2: русский / AC3 / 5.1 / 48 kHz / 640 kbps / 16 bit |Авторский, Сербин|
Аудио №3: русский / AC3 / 5.1 / 48 kHz / 640 kbps / 16 bit |Авторский, Рудой|
Аудио №4: русский / AC3 / 2.0 / 48 kHz / 192 kbps / 16 bit |Авторский, Визгунов|
Аудио №5: английский / AC3 / 5.1 / 48 kHz / 640 kbps / 16 bit
Субтитры: русские, английские
Навигация по главам(Чаптеры): есть
Продолжительность: 01:39:34Автор рипа: ]

MediaInfo

Format : Matroska
Format version : Version 2
File size : 11.6 GiB
Duration : 1h 39mn
Overall bit rate : 16.7 Mbps
Movie name : Intolerable Cruelty.(2003).BDRip.1080p.[denis100]
Encoded date : UTC 2016-03-24 13:45:49
Writing application : mkvmerge v5.8.0 ('No Sleep / Pillow') built on Sep 2 2012 15:37:04
Writing library : libebml v1.2.3 + libmatroska v1.3.0
Video
ID : 1
Format : AVC
Format/Info : Advanced Video Codec
Format profile : High@L4.1
Format settings, CABAC : Yes
Format settings, ReFrames : 4 frames
Codec ID : V_MPEG4/ISO/AVC
Duration : 1h 39mn
Bit rate : 14.2 Mbps
Width : 1 920 pixels
Height : 1 040 pixels
Display aspect ratio : 16:9
Frame rate : 23.976 fps
Color space : YUV
Chroma subsampling : 4:2:0
Bit depth : 8 bits
Scan type : Progressive
Bits/(Pixel*Frame) : 0.297
Stream size : 9.64 GiB (83%)
Title : Intolerable Cruelty.(2003).BDRip.1080p.[denis100]
Writing library : x264 core 148 r2665 a01e339
Encoding settings : cabac=1 / ref=4 / deblock=1:-3:-3 / analyse=0x3:0x133 / me=umh / subme=11 / psy=1 / psy_rd=1.05:0.15 / mixed_ref=1 / me_range=32 / chroma_me=1 / trellis=2 / 8x8dct=1 / cqm=0 / deadzone=21,11 / fast_pskip=0 / chroma_qp_offset=-3 / threads=6 / lookahead_threads=1 / sliced_threads=0 / nr=0 / decimate=1 / interlaced=0 / bluray_compat=0 / constrained_intra=0 / bframes=12 / b_pyramid=2 / b_adapt=2 / b_bias=0 / direct=3 / weightb=1 / open_gop=0 / weightp=2 / keyint=240 / keyint_min=23 / scenecut=40 / intra_refresh=0 / rc=2pass / mbtree=0 / bitrate=14212 / ratetol=1.0 / qcomp=0.60 / qpmin=0 / qpmax=69 / qpstep=4 / cplxblur=20.0 / qblur=0.5 / ip_ratio=1.40 / pb_ratio=1.30 / aq=2:0.80
Language : English
Default : Yes
Forced : No
Audio #1
ID : 2
Format : AC-3
Format/Info : Audio Coding 3
Mode extension : CM (complete main)
Codec ID : A_AC3
Duration : 1h 39mn
Bit rate mode : Constant
Bit rate : 448 Kbps
Channel(s) : 6 channels
Channel positions : Front: L C R, Side: L R, LFE
Sampling rate : 48.0 KHz
Bit depth : 16 bits
Compression mode : Lossy
Stream size : 319 MiB (3%)
Title : Дубляж
Language : Russian
Default : Yes
Forced : No
Audio #2
ID : 3
Format : AC-3
Format/Info : Audio Coding 3
Mode extension : CM (complete main)
Codec ID : A_AC3
Duration : 1h 39mn
Bit rate mode : Constant
Bit rate : 640 Kbps
Channel(s) : 6 channels
Channel positions : Front: L C R, Side: L R, LFE
Sampling rate : 48.0 KHz
Bit depth : 16 bits
Compression mode : Lossy
Stream size : 456 MiB (4%)
Title : Авторский, Сербин
Language : Russian
Default : No
Forced : No
Audio #3
ID : 4
Format : AC-3
Format/Info : Audio Coding 3
Mode extension : CM (complete main)
Codec ID : A_AC3
Duration : 1h 39mn
Bit rate mode : Constant
Bit rate : 640 Kbps
Channel(s) : 6 channels
Channel positions : Front: L C R, Side: L R, LFE
Sampling rate : 48.0 KHz
Bit depth : 16 bits
Compression mode : Lossy
Stream size : 456 MiB (4%)
Title : Авторский, Рудой
Language : Russian
Default : No
Forced : No
Audio #4
ID : 5
Format : AC-3
Format/Info : Audio Coding 3
Mode extension : CM (complete main)
Codec ID : A_AC3
Duration : 1h 39mn
Bit rate mode : Constant
Bit rate : 192 Kbps
Channel(s) : 2 channels
Channel positions : Front: L R
Sampling rate : 48.0 KHz
Bit depth : 16 bits
Compression mode : Lossy
Stream size : 137 MiB (1%)
Title : Авторский, Визгунов
Language : Russian
Default : No
Forced : No
Audio #5
ID : 6
Format : AC-3
Format/Info : Audio Coding 3
Mode extension : CM (complete main)
Codec ID : A_AC3
Duration : 1h 39mn
Bit rate mode : Constant
Bit rate : 640 Kbps
Channel(s) : 6 channels
Channel positions : Front: L C R, Side: L R, LFE
Sampling rate : 48.0 KHz
Bit depth : 16 bits
Compression mode : Lossy
Stream size : 456 MiB (4%)
Language : English
Default : No
Forced : No
Text #1
ID : 7
Format : UTF-8
Codec ID : S_TEXT/UTF8
Codec ID/Info : UTF-8 Plain Text
Language : Russian
Default : No
Forced : No
Text #2
ID : 8
Format : UTF-8
Codec ID : S_TEXT/UTF8
Codec ID/Info : UTF-8 Plain Text
Language : English
Default : No
Forced : No
Menu
00:00:00.000 : en:00:00:00.000
00:08:48.277 : en:00:08:48.277
00:12:04.140 : en:00:12:04.140
00:14:59.023 : en:00:14:59.023
00:19:23.370 : en:00:19:23.370
00:22:15.959 : en:00:22:15.959
00:26:57.574 : en:00:26:57.574
00:33:02.814 : en:00:33:02.814
00:41:45.711 : en:00:41:45.711
00:43:51.211 : en:00:43:51.211
00:46:01.800 : en:00:46:01.800
00:54:06.952 : en:00:54:06.952
00:59:42.745 : en:00:59:42.745
01:06:11.759 : en:01:06:11.759
01:10:48.619 : en:01:10:48.619
01:16:49.896 : en:01:16:49.896
01:19:34.811 : en:01:19:34.811
01:23:19.411 : en:01:23:19.411
01:25:34.420 : en:01:25:34.420
01:30:34.637 : en:01:30:34.637

x264

x264 [info]: frame I:1055 Avg QP:16.81 size:276680
x264 [info]: frame P:27863 Avg QP:18.93 size:116354
x264 [info]: frame B:114321 Avg QP:21.12 size: 61751
x264 [info]: consecutive B-frames: 1.7% 1.4% 5.8% 10.8% 12.8% 52.4% 7.8% 2.4% 2.2% 1.5% 0.6% 0.3% 0.4%

Скриншоты

[Профиль] [ЛС]
Показать сообщения:    

Текущее время: Сегодня 22:41

Часовой пояс: GMT



Вы не можете начинать темы
Вы не можете отвечать на сообщения
Вы не можете редактировать свои сообщения
Вы не можете удалять свои сообщения
Вы не можете голосовать в опросах
Вы не можете прикреплять файлы к сообщениям
Вы не можете скачивать файлы