Невозмутимый / Холодный как камень / Без эмоций / Stone Cold (1991) BDRip 720p от NovaLan

 
Автор Сообщение

sergej644 ®

Пол:

Стаж: 4 года 11 месяцев

Сообщений: 6042

Откуда: Soviet Union



Награды: Нет

Торрент-статистика

Создавать темы 08-Фев-2015 12:13

[Цитировать]

Название: Невозмутимый / Холодный как камень / Без эмоций
Оригинальное название: Stone Cold
Год выхода: 1991
Жанр: Боевик, драма, криминал
Режиссер: Крэйг Р. Бэксли
В ролях: Брайан Босворт, Лэнс Хенриксен, Иллэна Дайамант, Уильям Форсайт, Арабелла Хольцбог, Сэм МакМюррей, Ричард Гант, Дэвид Тресс, Ивэн Джеймс, Тони Пирс, Билли Милион, Роберт Уинли, Грегори Скотт Камминс, Деметре Филлипс, Мэджик Шварц, Бренда Джеймс, Пол М. Лэйн, Джин Хартлайн, Джон Хэтли, Трэйси Хатчинсон, Дженнифер Синнотт, Джон Р. Грэнтхем, Томас Ф. Ибарра, Майкл Рен, Билл Грэттон, Майкл Джеймс, Дэвид Глен Айли, Чарльз Странски, Рене О’Коннор, Мэгги Иган, Бенжамин Розенберг, Фрэнк Феррара, Трой Браун, Роберт Прентисс, Кевин Пейдж, Мэтт Д. Джонсон, Мэтт Джонстон, Ник Дмитрий, Дэвид Эфрон, Том Маджи, Джон Терренс
О фильме:
Джо Хафф - полицейский, который внедряется в банду рокеров, терроризирующую городок в штате Миссисипи, подминая под себя не только рядовых его жителей и подпольных бизнесменов, но и местные органы власти, включая представителей правосудия. Внешность и манеры поведения Джо позволяют ему выдать себя среди рокеров за своего и под именем Джо Стоуна начать разработку операции по захвату всей моторизованной и до зубов вооруженной банды, которой руководит безжалостный Чейнз.

Страна: США, Stone Group Pictures, Vision International
Продолжительность: 01:32:01
Перевод: Профессиональный двухголосый / Авторский одноголосый (Михалев, Гаврилов, Горчаков)
Кодек: H.264
Качество: BDRip 720p
Видео: MPEG-4 AVC, 5300 Кбит/с, 1280х692, 23.976 кадр/с
Звук: Русский (AC3, 2 ch, 224 Кбит/с), английский (AC3, 6 ch, 448 Кбит/с)
Субтитры: Английские

Инфо-файл

Полное имя : D:Раздачи_DStone.Cold.1991.x264.BDRip.720p.NovaLan.mkv
Формат : Matroska
Версия формата : Version 4 / Version 2
Размер файла : 4,27 Гбайт
Продолжительность : 1 ч. 32 м.
Общий поток : 6645 Кбит/сек
Название фильма : Stone Cold 1991 - NovaLan
Дата кодирования : UTC 2014-09-16 05:34:53
Программа кодирования : mkvmerge v7.2.0 ('On Every Street') 64bit built on Sep 13 2014 15:52:10
Библиотека кодирования : libebml v1.3.0 + libmatroska v1.4.1
DURATION : 01:27:14.568000000
NUMBER_OF_FRAMES : 763
NUMBER_OF_BYTES : 28930
_STATISTICS_WRITING_APP : mkvmerge v7.2.0 ('On Every Street') 64bit built on Sep 13 2014 15:52:10
_STATISTICS_WRITING_DATE_UTC : 2014-09-16 05:34:53
_STATISTICS_TAGS : BPS DURATION NUMBER_OF_FRAMES NUMBER_OF_BYTES
Видео
Идентификатор : 1
Формат : AVC
Формат/Информация : Advanced Video Codec
Профиль формата : High@L4.1
Параметр CABAC формата : Да
Параметр ReFrames формата : 8 кадров
Идентификатор кодека : V_MPEG4/ISO/AVC
Продолжительность : 1 ч. 32 м.
Битрейт : 5300 Кбит/сек
Ширина : 1280 пикселей
Высота : 692 пикселя
Соотношение сторон : 1,85:1
Частота кадров : 23,976 кадра/сек
Цветовое пространство : YUV
Субдискретизация насыщенности : 4:2:0
Битовая глубина : 8 бит
Тип развёртки : Прогрессивная
Бит/(Пиксели*Кадры) : 0.250
Размер потока : 3,32 Гбайт (78%)
Заголовок : Sergei7721
Библиотека кодирования : x264 core 133 r2334 a3ac64b
Настройки программы : cabac=1 / ref=8 / deblock=1:-1:-1 / analyse=0x3:0x113 / me=umh / subme=11 / psy=1 / psy_rd=1.00:0.20 / mixed_ref=1 / me_range=32 / chroma_me=1 / trellis=2 / 8x8dct=1 / cqm=0 / deadzone=21,11 / fast_pskip=0 / chroma_qp_offset=-3 / threads=12 / lookahead_threads=1 / sliced_threads=0 / nr=0 / decimate=0 / interlaced=0 / bluray_compat=0 / constrained_intra=0 / bframes=6 / b_pyramid=2 / b_adapt=2 / b_bias=0 / direct=3 / weightb=1 / open_gop=0 / weightp=2 / keyint=240 / keyint_min=23 / scenecut=40 / intra_refresh=0 / rc_lookahead=40 / rc=2pass / mbtree=0 / bitrate=5300 / ratetol=1.0 / qcomp=0.60 / qpmin=0 / qpmax=69 / qpstep=4 / cplxblur=20.0 / qblur=0.5 / vbv_maxrate=50000 / vbv_bufsize=62500 / nal_hrd=none / ip_ratio=1.40 / pb_ratio=1.30 / aq=1:1.00
Default : Да
Forced : Нет
DURATION : 01:32:00.807000000
NUMBER_OF_FRAMES : 132367
NUMBER_OF_BYTES : 3656690278
_STATISTICS_WRITING_APP : mkvmerge v7.2.0 ('On Every Street') 64bit built on Sep 13 2014 15:52:10
_STATISTICS_WRITING_DATE_UTC : 2014-09-16 05:34:53
_STATISTICS_TAGS : BPS DURATION NUMBER_OF_FRAMES NUMBER_OF_BYTES
Аудио #1
Идентификатор : 2
Формат : AC-3
Формат/Информация : Audio Coding 3
Профиль формата : Dolby Digital
Расширение режима : CM (complete main)
Параметр Endianness формата : Big
Идентификатор кодека : A_AC3
Продолжительность : 1 ч. 32 м.
Вид битрейта : Постоянный
Битрейт : 224 Кбит/сек
Каналы : 2 канала
Расположение каналов : Front: L R
Частота : 48,0 КГц
Битовая глубина : 16 бит
Метод сжатия : С потерями
Размер потока : 147 Мбайт (3%)
Язык : Russian
Default : Да
Forced : Нет
Аудио #2
Идентификатор : 3
Формат : AC-3
Формат/Информация : Audio Coding 3
Профиль формата : Dolby Digital
Расширение режима : CM (complete main)
Параметр Endianness формата : Big
Идентификатор кодека : A_AC3
Продолжительность : 1 ч. 32 м.
Вид битрейта : Постоянный
Битрейт : 224 Кбит/сек
Каналы : 2 канала
Расположение каналов : Front: L R
Частота : 48,0 КГц
Битовая глубина : 16 бит
Метод сжатия : С потерями
Размер потока : 147 Мбайт (3%)
Язык : Russian
Default : Нет
Forced : Нет
Аудио #3
Идентификатор : 4
Формат : AC-3
Формат/Информация : Audio Coding 3
Профиль формата : Dolby Digital
Расширение режима : CM (complete main)
Параметр Endianness формата : Big
Идентификатор кодека : A_AC3
Продолжительность : 1 ч. 32 м.
Вид битрейта : Постоянный
Битрейт : 224 Кбит/сек
Каналы : 2 канала
Расположение каналов : Front: L R
Частота : 48,0 КГц
Битовая глубина : 16 бит
Метод сжатия : С потерями
Размер потока : 147 Мбайт (3%)
Язык : Russian
Default : Нет
Forced : Нет
Аудио #4
Идентификатор : 5
Формат : AC-3
Формат/Информация : Audio Coding 3
Профиль формата : Dolby Digital
Расширение режима : CM (complete main)
Параметр Endianness формата : Big
Идентификатор кодека : A_AC3
Продолжительность : 1 ч. 32 м.
Вид битрейта : Постоянный
Битрейт : 224 Кбит/сек
Каналы : 2 канала
Расположение каналов : Front: L R
Частота : 48,0 КГц
Битовая глубина : 16 бит
Метод сжатия : С потерями
Размер потока : 147 Мбайт (3%)
Язык : Russian
Default : Нет
Forced : Нет
Аудио #5
Идентификатор : 6
Формат : AC-3
Формат/Информация : Audio Coding 3
Расширение режима : CM (complete main)
Параметр Endianness формата : Big
Идентификатор кодека : A_AC3
Продолжительность : 1 ч. 32 м.
Вид битрейта : Постоянный
Битрейт : 448 Кбит/сек
Каналы : 6 каналов
Расположение каналов : Front: L C R, Side: L R, LFE
Частота : 48,0 КГц
Битовая глубина : 16 бит
Метод сжатия : С потерями
Размер потока : 295 Мбайт (7%)
Язык : English
Default : Нет
Forced : Нет
Текст
Идентификатор : 7
Формат : UTF-8
Идентификатор кодека : S_TEXT/UTF8
Идентификатор кодека/Информация : UTF-8 Plain Text
Язык : English
Default : Нет
Forced : Нет
Меню
00:00:00.000 : en:00:00:00.000
00:06:30.973 : en:00:06:30.973
00:17:19.955 : en:00:17:19.955
00:23:31.993 : en:00:23:31.993
00:29:25.930 : en:00:29:25.930
00:36:54.003 : en:00:36:54.003
00:43:53.005 : en:00:43:53.005
00:51:54.986 : en:00:51:54.986
00:58:08.902 : en:00:58:08.902
01:05:06.902 : en:01:05:06.902
01:13:19.561 : en:01:13:19.561
01:27:50.932 : en:01:27:50.932
01:32:00.806 : en:01:32:00.806
Релиз группы NovaLan
Автор релиза Sergei7721

Скриншоты

[Профиль] [ЛС]
Кто просматривает тему:

Форум Тема Автор Размер
Фильмы (HD Rips | 720p, 1080p) Metallica: Сквозь невозможное / Metallica: Through the Never (2013) BDRip 720p от KinoRay | P, L1 sergej644 7.34 GB
Фильмы (HD Rips | 720p, 1080p) Metallica: Сквозь невозможное / Metallica: Through the Never (2013) BDRip [720p] sergej644 7.17 GB
National Geographic NG: Исследователь 2.0: Бирма (Точка невозврата) [сезон 8 эпизод 09] / Explorer. Point of No Return (Todd Hermann) [2016 г., Документальный, научно-попупулярный, HDTVRip 720p] skorpionN 1.44 GB
Фильмы 2009 года Невозможная любовь / Теневые любовники / Les amants de l\'ombre (Филипп Ньянг / Philippe Niang) [2009, Франция, драма, DVB] Original (Fre) + Sub (rus) TorrentFilm 2.03 GB
Фильмы 2012 года Невозможное / Lo imposible / The Impossible (2012) BDRip от Dalemake | USA-Transfer | D | Лицензия Russian Mafia 1.46 GB
Отечественные cериалы Половинки невозможного [01-04 из 04] (2014) SATRip от Files-x Белочка 2.15 GB
Документальные HD Спецэффекты в Кино. Создавая Невозможное / Industrial Light and Magic: Creating the Impossible (Лесли Айверкс / Leslie Iwerks) [2010, Документальный, HDTV 720p] MVO (AMEDiA TV) TorrentFilm 1.83 GB
Фильмы 2016 года Точка невозврата / Crossing Point (2016) WEB-DLRip | L1 Russian Mafia 1.36 GB
Показать сообщения:    

Текущее время: Сегодня 08:55

Часовой пояс: GMT



Вы не можете начинать темы
Вы не можете отвечать на сообщения
Вы не можете редактировать свои сообщения
Вы не можете удалять свои сообщения
Вы не можете голосовать в опросах
Вы не можете прикреплять файлы к сообщениям
Вы не можете скачивать файлы