Невозможная любовь / Теневые любовники / Les amants de l\'ombre (Филипп Ньянг / Philippe Niang) [2009, Франция, драма, DVB] Original (Fre) + Sub (rus)

 
Автор Сообщение

TorrentFilm ®

Пол:

Стаж: 2 года

Сообщений: 7741



Награды: Нет

Торрент-статистика

Создавать темы 13-Мар-2016 00:00

[Цитировать]

Невозможная любовь
Les amants de l'ombre- Страна: Франция
Жанр: драма
Год выпуска: 2009
Продолжительность: 01:33:18Перевод: Субтитры (перевод М. Кузиной, А. Вижье, Éclair Group/OA)
Cубтитры: русские
Оригинальная аудиодорожка: французский
Режиссер: Филипп Ньянг / Philippe Niang
В ролях: Жюли Дебазак / Julie Debazac (Louise Venturi), Энтони Кавана / Anthony Kavanagh (Gary Larochelle), Жорж Коррафас / Georges Corraface (Ange Venturi), Дельфин Риш / Delphine Rich (Mathilde Venturi), Лили-Флёр Пуанто / Lilly-Fleur Pointeaux (Blanche Venturi), Майк Пауэрс / Mike Powers (Arthur Kennedy), Эдуар Монтут / Edouard Montoute (Sydney Jackson), Бруно Слагмюлдер / Bruno Slagmulder (Pierre Venturi)
Описание: Этот фильм о мало обсуждаемых темах: сегрегации в американской армии и расизме во Франции, о периоде массовой истерии и мстительности, захлестнувших французское общество в послевоенное время по отношению к женщинам, у которых "был секс с бошами". Именно эти парадоксы исследует фильм Филиппа Ньянга.
Конец II Мировой войны. История о сильной, но запретной любви между Луизой, муж которой уже 4 года находится в немецком плену, и чернокожим американским солдатом Гари из армии союзников, чей полк расквартировался в небольшой французской деревушке. Тем временем племянница Луизы, несовершеннолетняя Бланш, была влюблена в немецкого солдата, убитого американцами. В не себя от горя и ненависти к "освободителям" она обвиняет Гари в изнасиловании…
Доп. информация: Запись со спутника (телеканал TV5MONDE). Во время английской речи на экране дополнительно вшитые французские субтитры.
Участник FESPACO Film Festival 2011.
Информация: http://www.imdb.com/title/tt1447498
Сэмпл: http://multi-up.com/901105
Качество видео: DVB
Формат видео: MPEG-PS [url=viewtopic.php?p=58098458#58098458](См. при проблемах с просмотром видео)[/url]
Видео: MPEG Video 2, 720x576@1024x576 (16:9), 25 fps, ~2860 kbps avg, 0.276 bit/pixel
Аудио: Французский (48 kHz, MPEG Audio 2, 2 ch, ~192.00 kbps avg)
Формат субтитров: hardsub (неотключаемые)

MediaInfo

Полное имя : H:\My Torrents\[apreder]Les_amants_de_l'ombre(2009)DVB.mpgФормат : MPEG-PSРазмер файла : 2,03 ГбайтПродолжительность : 1 ч. 33 м.Режим общего битрейта : ПеременныйОбщий поток : 3114 Кбит/сек
ВидеоИдентификатор : 224 (0xE0)Формат : MPEG VideoВерсия формата : Version 2Профиль формата : Main@MainПараметр BVOP формата : ДаПараметр матрицы формата : ВыборочнаяПараметр GOP формата : M=3, N=24Продолжительность : 1 ч. 33 м.Вид битрейта : ПеременныйБитрейт : 2860 Кбит/секШирина : 720 пикселейВысота : 576 пикселейСоотношение сторон : 16:9Частота кадров : 25,000 кадров/секСтандарт вещания : PALЦветовое пространство : YUVСубдискретизация насыщенности : 4:2:0Битовая глубина : 8 битМетод сжатия : С потерямиБит/(Пиксели*Кадры) : 0.276TimeCode_FirstFrame : 00:00:00:00TimeCode_Source : Group of pictures headerРазмер потока : 1,86 Гбайт (92%)
АудиоИдентификатор : 192 (0xC0)Формат : MPEG AudioВерсия формата : Version 1Профиль формата : Layer 2Продолжительность : 1 ч. 33 м.Вид битрейта : ПостоянныйБитрейт : 192 Кбит/секКаналы : 2 каналаЧастота : 48,0 КГцМетод сжатия : С потерямиРазмер потока : 128 Мбайт (6%)

Скриншот c названием фильма

Скриншоты


Резервные скриншоты


-957/939√
[Профиль] [ЛС]

Создавать темы 12-Июн-2016 07:56 (спустя 2 месяца 30 дней)

Топик был перенесен из форума Фильмы 2011 года в форум Фильмы 2009 года
Russian Mafia
 
Кто просматривает тему:

Форум Тема Автор Размер
Фильмы (HD Rips | 720p, 1080p) Metallica: Сквозь невозможное / Metallica: Through the Never (2013) BDRip 720p от KinoRay | P, L1 sergej644 7.34 GB
Фильмы (HD Rips | 720p, 1080p) Metallica: Сквозь невозможное / Metallica: Through the Never (2013) BDRip [720p] sergej644 7.17 GB
National Geographic NG: Исследователь 2.0: Бирма (Точка невозврата) [сезон 8 эпизод 09] / Explorer. Point of No Return (Todd Hermann) [2016 г., Документальный, научно-попупулярный, HDTVRip 720p] skorpionN 1.44 GB
Фильмы 2012 года Невозможное / Lo imposible / The Impossible (2012) BDRip от Dalemake | USA-Transfer | D | Лицензия Russian Mafia 1.46 GB
Фильмы (HD Rips | 720p, 1080p) Невозмутимый / Холодный как камень / Без эмоций / Stone Cold (1991) BDRip 720p от NovaLan sergej644 4.27 GB
Отечественные cериалы Половинки невозможного [01-04 из 04] (2014) SATRip от Files-x Белочка 2.15 GB
Документальные HD Спецэффекты в Кино. Создавая Невозможное / Industrial Light and Magic: Creating the Impossible (Лесли Айверкс / Leslie Iwerks) [2010, Документальный, HDTV 720p] MVO (AMEDiA TV) TorrentFilm 1.83 GB
Фильмы 2016 года Точка невозврата / Crossing Point (2016) WEB-DLRip | L1 Russian Mafia 1.36 GB
Показать сообщения:    

Текущее время: Сегодня 11:53

Часовой пояс: GMT



Вы не можете начинать темы
Вы не можете отвечать на сообщения
Вы не можете редактировать свои сообщения
Вы не можете удалять свои сообщения
Вы не можете голосовать в опросах
Вы не можете прикреплять файлы к сообщениям
Вы не можете скачивать файлы