Невидимый страж / El guardián invisible (2017) WEBRip 720p | L

 
Автор Сообщение

BOSS ®

Пол:

Стаж: 3 года 1 месяц

Сообщений: 8217

Откуда: ODESSA



Награды: 22 (Подробнее)

Top Seeder 5 (Количество: 1) Mega Releaser 4 (Количество: 1) Mega Seeder 4 (Количество: 1)
Торрент-статистика

Создавать темы 07-Авг-2017 11:42

[Цитировать]

Информация о фильме
Название: Невидимый страж
Оригинальное название: El guardián invisible
Год выхода: 2017
Жанр: триллер
Режиссер: Фернандо Гонзалез Молина
В ролях: Хавьер Ботет, Марта Этура, Колин МакФарлэйн, Франсеск Орелья, Маноло Соло, Эльвира Мингес, Микель Фернандес, Педро Касабланк, Miguel Herrán, Бенджамин Нортовер
О фильме:
Инспектор Амайя Салазар возглавляет расследование по поимке серийного убийцы в дождливом городе в самом сердце страны басков. В котором она родилась и куда надеялась никогда не возвращаться. Разрываясь между рациональной частью работы и местными мифами, Амайя должна побороть своих внутренних демонов, чтобы противостоять вполне реальному злу.

Страна: Германия, Испания
Студия: Atresmedia Cine, Nadcon Film, Nostromo Pictures, Zweites Deutsches Fernsehen (ZDF)
Продолжительность: 02:10:13
Перевод: любительский многоголосный, закадровый ["Синема УС"]
Файл
Кодек: H.264
Качество: WEBRip 720p
Видео: AVC, 1280x536 (2.40:1), 24 fps ~ 3100 Kbps
Звук: AC3, 48 KHz, 2 cj ~ 384 Kb/s
Субтитры: отсутствуют

MI:

Общее
Уникальный идентификатор : 225127704405368942356239461695619726576 (0xA95E04CB0032075B8900EE3B2889FCF0)
Полное имя : Q:TorFThe.Invisible.Guardian.2017.WEBRip.720p.mkv
Формат : Matroska
Версия формата : Version 2
Размер файла : 3,13 Гбайт
Продолжительность : 2 ч. 10 м.
Общий поток : 3440 Кбит/сек
Дата кодирования : UTC 2017-08-07 09:27:01
Программа кодирования : mkvmerge v5.4.0 ('Piper') built on Mar 10 2012 13:34:39
Библиотека кодирования : libebml v1.2.3 + libmatroska v1.3.0
DURATION : 02:10:50.464000000
NUMBER_OF_FRAMES : 245327
NUMBER_OF_BYTES : 376822272
_STATISTICS_WRITING_APP : mkvmerge v14.0.0 ('Flow') 64bit
_STATISTICS_WRITING_DATE_UTC : 2017-08-05 21:23:14
_STATISTICS_TAGS : BPS DURATION NUMBER_OF_FRAMES NUMBER_OF_BYTES
Видео
Идентификатор : 1
Формат : AVC
Формат/Информация : Advanced Video Codec
Профиль формата : High@L4.1
Параметр CABAC формата : Да
Параметр ReFrames формата : 4 кадра
Идентификатор кодека : V_MPEG4/ISO/AVC
Продолжительность : 2 ч. 10 м.
Битрейт : 2987 Кбит/сек
Ширина : 1280 пикселей
Высота : 536 пикселей
Соотношение сторон : 2,40:1
Частота кадров : 24,000 кадра/сек
Цветовое пространство : YUV
Субдискретизация насыщенности : 4:2:0
Битовая глубина : 8 бит
Тип развёртки : Прогрессивная
Бит/(Пиксели*Кадры) : 0.181
Размер потока : 2,72 Гбайт (87%)
Язык : English
Default : Да
Forced : Нет
DURATION : 02:10:50.465000000
NUMBER_OF_FRAMES : 188411
NUMBER_OF_BYTES : 2996069607
_STATISTICS_WRITING_APP : mkvmerge v14.0.0 ('Flow') 64bit
_STATISTICS_WRITING_DATE_UTC : 2017-08-05 21:23:14
_STATISTICS_TAGS : BPS DURATION NUMBER_OF_FRAMES NUMBER_OF_BYTES
Аудио
Идентификатор : 2
Формат : AC-3
Формат/Информация : Audio Coding 3
Расширение режима : CM (complete main)
Идентификатор кодека : A_AC3
Продолжительность : 2 ч. 10 м.
Вид битрейта : Постоянный
Битрейт : 384 Кбит/сек
Каналы : 2 канала
Расположение каналов : Front: L R
Частота : 48,0 КГц
Битовая глубина : 16 бит
Метод сжатия : С потерями
Задержка видео : 21 мс.
Размер потока : 358 Мбайт (11%)
Язык : Russian
Default : Да
Forced : Нет

Скриншоты

[Профиль] [ЛС]
Кто просматривает тему:

Форум Тема Автор Размер
Rock (Рок) Крематорий - Люди-невидимки - 2016, MP3, 256 kbps достали все 73 MB
BBC BBC: Невидимые города Италии / Italy's Invisible Cities [серии 1-3 из 3] (Harvey Lilley) [2016 г., Документальный, научно-популярный, история, исследования, SATRip] skorpionN 1.64 GB
Da Vinci Learning Da Vinci Learning: BBC: Невидимое простым глазом / Beyond The Naked Eye [серии 1-3 из 3] (Rosalind Bain, Jessica Barrington) [2002 г., Документальный, научно-познавательный, исследования, гипотезы,... skorpionN 1.21 GB
Nat Geo Wild Nat Geo Wild: Дикие острова: Невиданные острова / Unseen Islands [сезон 1 серии 1-2 из 2] (Stewart McPherson) [2015 г., Документальный, научно-познавательный, HDTVRip 720p] skorpionN 3.19 GB
R.G.TorrentFilm Video Дикие острова: Невиданные острова / Unseen Islands (Стюарт МакПерсон / Stewart McPherson) [2015 г., Документальный, флора, фауна, HDTVRip] VО (Олег Белов) Один 777 999 MB
Приключения, Квесты, Логические За гранью невидимого. Сумерки (2015) PC достали все 728 MB
Документальные HD Невиданные Гавайи. Тайны морских глубин / Wild Hawaii. Secrets of the Deep (2013) HDTVRip [H.264/720p] sergej644 2.03 GB
Азиатские фильмы Невиданный цветок / The Flower We Saw That Day / Ano hi mita hana no namae o bokutachi wa mada shiranai (2015) HDTVRip | L достали все 1.45 GB
Показать сообщения:    

Текущее время: Сегодня 07:50

Часовой пояс: GMT



Вы не можете начинать темы
Вы не можете отвечать на сообщения
Вы не можете редактировать свои сообщения
Вы не можете удалять свои сообщения
Вы не можете голосовать в опросах
Вы не можете прикреплять файлы к сообщениям
Вы не можете скачивать файлы