Невидимка / In Darkness (2018) WEB-DL 1080p | HDrezka Studio

 
Автор Сообщение

BOSS ®

Пол:

Стаж: 3 года 8 месяцев

Сообщений: 10659

Откуда: ODESSA



Награды: 22 (Подробнее)

Top Releaser 3 (Количество: 1) Top Keeper 3 (Количество: 1) Mega Releaser 4 (Количество: 1)
Торрент-статистика

Создавать темы 02-Июн-2018 08:31

[Цитировать]

Информация о фильме
Название: Невидимка
Оригинальное название: In Darkness
Год выхода: 2018
Жанр: Триллер
Режиссер: Энтони Бирн
В ролях: Натали Дормер, Эмили Ратаковски, Эд Скрейн, Джоэли Ричардсон, Джеймс Космо, Нил Мэскелл, Эмбер Андерсон, Ян Бейвут, Бернард Коллако
О фильме:
В последнее время слепая пианистка София стала все чаще слышать посторонний мужской голос, доносящийся из квартиры Вероники, её соседки сверху. Очередной визит незнакомца заканчивается ссорой, в процессе которой Вероника выпадает из окна своей квартиры и погибает. Полиция предполагает, что девушка совершила самоубийство, и лишь София догадывается, что же произошло на самом деле. Она оказывается втянута в опасную игру, в которой замешаны международные преступники и мафия, вот только они еще не знают, что у девушки на этот счет уже есть свои планы...

Страна: Великобритания, США
Студия: 42, XYZ Films
Продолжительность: 01:41:12
Перевод: Профессиональный (многоголосый, закадровый) | HDrezka Studio
Файл
Кодек: H.264
Качество: WEB-DL 1080p | HDrezka Studio
Видео: AVC/H.264, 1920x800, ~5359 kbps, 23.976 fps
Звук:
Аудио 1: AC3, 2 ch, 192 Kbps - Русский
Аудио 2: E-AC3, 6 ch, 640 Kbps - Английский
Субтитры: Русские, английские

Mediainfo

Общее
Уникальный идентификатор : 200552159943309598172138929502086238746 (0x96E0F0E6FD939D09724A524B929C121A)
Полное имя : In Darkness.2018.WEB-DL.1080p.mkv
Формат : Matroska
Версия формата : Version 4 / Version 2
Размер файла : 4,38 Гбайт
Продолжительность : 1 ч. 41 м.
Режим общего битрейта : Переменный
Общий поток : 6193 Кбит/сек
Дата кодирования : UTC 2018-06-02 07:16:20
Программа кодирования : mkvmerge v23.0.0 ('The Bride Said No') 64-bit
Библиотека кодирования : libebml v1.3.6 + libmatroska v1.4.9
Видео
Идентификатор : 1
Формат : AVC
Формат/Информация : Advanced Video Codec
Профиль формата : High@L4
Настройки формата : CABAC / 4 Ref Frames
Параметр CABAC формата : Да
Параметр RefFrames формата : 4 кадра
Идентификатор кодека : V_MPEG4/ISO/AVC
Продолжительность : 1 ч. 41 м.
Вид битрейта : Переменный
Битрейт : 5359 Кбит/сек
Максимальный битрейт : 15,0 Мбит/сек
Ширина : 1920 пикселей
Высота : 800 пикселей
Соотношение сторон : 2,40:1
Режим частоты кадров : Постоянный
Частота кадров : 23,976 (24000/1001) кадра/сек
Цветовое пространство : YUV
Субдискретизация насыщенности : 4:2:0
Битовая глубина : 8 бит
Тип развёртки : Прогрессивная
Бит/(Пиксели*Кадры) : 0.146
Размер потока : 3,79 Гбайт (87%)
Язык : English
Default : Да
Forced : Нет
Цветовой диапазон : Limited
Основные цвета : BT.709
Характеристики трансфера : BT.709
Коэффициенты матрицы : BT.709
Аудио #1
Идентификатор : 2
Формат : AC-3
Формат/Информация : Audio Coding 3
Идентификатор кодека : A_AC3
Продолжительность : 1 ч. 41 м.
Вид битрейта : Постоянный
Битрейт : 192 Кбит/сек
Каналы : 2 канала
Расположение каналов : Front: L R
Частота : 48,0 КГц
Частота кадров : 31,250 кадров/сек (1536 SPF)
Битовая глубина : 16 бит
Метод сжатия : С потерями
Размер потока : 139 Мбайт (3%)
Заголовок : MVO (HDRezka Studio)
Язык : Russian
ServiceKind : Complete Main
Default : Да
Forced : Нет
Аудио #2
Идентификатор : 3
Формат : E-AC-3
Формат/Информация : Enhanced Audio Coding 3
Идентификатор кодека : A_EAC3
Продолжительность : 1 ч. 41 м.
Вид битрейта : Постоянный
Битрейт : 640 Кбит/сек
Каналы : 6 каналов
Расположение каналов : Front: L C R, Side: L R, LFE
Частота : 48,0 КГц
Частота кадров : 187,500 кадров/сек (256 SPF)
Метод сжатия : С потерями
Размер потока : 463 Мбайт (10%)
Язык : English
ServiceKind : Complete Main
Default : Нет
Forced : Нет
Текст #1
Идентификатор : 4
Формат : UTF-8
Идентификатор кодека : S_TEXT/UTF8
Идентификатор кодека/Информация : UTF-8 Plain Text
Продолжительность : 1 ч. 33 м.
Битрейт : 64 бит/сек
ElementCount : 828
Размер потока : 44,2 Кбайт (0%)
Язык : Russian
Default : Нет
Forced : Нет
Текст #2
Идентификатор : 5
Формат : UTF-8
Идентификатор кодека : S_TEXT/UTF8
Идентификатор кодека/Информация : UTF-8 Plain Text
Продолжительность : 1 ч. 33 м.
Битрейт : 38 бит/сек
ElementCount : 839
Размер потока : 26,5 Кбайт (0%)
Язык : English
Default : Нет
Forced : Нет
Текст #3
Идентификатор : 6
Формат : UTF-8
Идентификатор кодека : S_TEXT/UTF8
Идентификатор кодека/Информация : UTF-8 Plain Text
Продолжительность : 1 ч. 34 м.
Битрейт : 39 бит/сек
ElementCount : 912
Размер потока : 27,6 Кбайт (0%)
Заголовок : SDH
Язык : English
Default : Нет
Forced : Нет

Скриншоты

[Профиль] [ЛС]
Кто просматривает тему:

Форум Тема Автор Размер
Rock (Рок) Крематорий - Люди-невидимки - 2016, MP3, 256 kbps достали все 73 MB
BBC BBC: Невидимые города Италии / Italy's Invisible Cities [серии 1-3 из 3] (Harvey Lilley) [2016 г., Документальный, научно-популярный, история, исследования, SATRip] skorpionN 1.64 GB
Da Vinci Learning Da Vinci Learning: BBC: Невидимое простым глазом / Beyond The Naked Eye [серии 1-3 из 3] (Rosalind Bain, Jessica Barrington) [2002 г., Документальный, научно-познавательный, исследования, гипотезы,... skorpionN 1.21 GB
Nat Geo Wild Nat Geo Wild: Дикие острова: Невиданные острова / Unseen Islands [сезон 1 серии 1-2 из 2] (Stewart McPherson) [2015 г., Документальный, научно-познавательный, HDTVRip 720p] skorpionN 3.19 GB
R.G.TorrentFilm Video Дикие острова: Невиданные острова / Unseen Islands (Стюарт МакПерсон / Stewart McPherson) [2015 г., Документальный, флора, фауна, HDTVRip] VО (Олег Белов) Один 777 999 MB
Приключения, Квесты, Логические За гранью невидимого. Сумерки (2015) PC достали все 728 MB
Документальные HD Невиданные Гавайи. Тайны морских глубин / Wild Hawaii. Secrets of the Deep (2013) HDTVRip [H.264/720p] sergej644 2.03 GB
Азиатские фильмы Невиданный цветок / The Flower We Saw That Day / Ano hi mita hana no namae o bokutachi wa mada shiranai (2015) HDTVRip | L достали все 1.45 GB
Показать сообщения:    

Текущее время: Сегодня 03:37

Часовой пояс: GMT



Вы не можете начинать темы
Вы не можете отвечать на сообщения
Вы не можете редактировать свои сообщения
Вы не можете удалять свои сообщения
Вы не можете голосовать в опросах
Вы не можете прикреплять файлы к сообщениям
Вы не можете скачивать файлы