Невидимка / Hollow Man (2000) BDRemux 1080p | D, Р, А | Режиссерская версия

 
Автор Сообщение

Russian Mafia ®

Пол:

Стаж: 1 год 8 месяцев

Сообщений: 4253



Награды: 10 (Подробнее)

Mega Seeder 3 (Количество: 1) Mega Seeder 4 (Количество: 1) За внесенный вклад в развитие сайта (Количество: 1)
Торрент-статистика

Создавать темы 21-Сен-2016 06:10

[Цитировать]

Невидимка / Hollow Man
Страна: США Германия
Производство: Columbia Pictures Corporation, Global Entertainment Productions GmbH & Company Medien KG
Год выпуска: 2000
Жанр: фантастика, триллер
Продолжительность: 01:59:15
Режиссер: Пол Верховен
Авторы сценария: Эндрю У. Марлоу, Гэри Скотт Томпсон
В ролях: Кевин Бейкон, Элизабет Шу, Джош Бролин, Ким Диккенс, Грег Гранберг, Джои Злотник, Мэри Рэндл, Уильям Дивэйн, Пабло Эспиноса
Описание: Профессор Себастьян Кейн ищет формулу невидимости. Он уже научился делать невидимыми животных. Но эксперимент нельзя считать завершённым, пока не будет найдена формула «возврата» — невидимый объект должен снова обрести плоть и кровь. После долгих поисков Кейн находит искомую формулу и успешно возвращает в мир реальных очертаний гориллу. Остается заключительный аккорд — совершить полный цикл на человеке. Как настоящий учёный, Кейн решает проделать это с самим собой…

Перевод: Профессиональный (дублированный) + 4х Профессиональный (многоголосый) + 3х Авторский (одноголосый)
Субтитры: русские - два вида, английские - два вида-Качество: BDRemux 1080p
Формат: МКV
Видео кодек: AVC
Аудио кодек: АС3 | DTS
Видео: 1920x1080 (16:9), 23.976 fps, MPEG-4 AVC ~25.5 Мbps avg
Аудио №1: 48.0 kHz, AC3 Dolby Digital, 3/2 (L,C,R,l,r) + LFE ch, ~448 kbps | DUB / вставки MVO
Аудио №2: 48.0 kHz, AC3 Dolby Digital, 3/2 (L,C,R,l,r) + LFE ch, ~640 kbps | МVO / Blu-ray CEE
Аудио №3: 48.0 kHz, AC3 Dolby Digital, 3/2 (L,C,R,l,r) + LFE ch, ~448 kbps | МVO / Киномания
Аудио №4: 48.0 kHz, AC3 Dolby Digital, 3/2 (L,C,R,l,r) + LFE ch, ~384 kbps | МVO / Видеосервис / вставки MVO от Киномания
Аудио №5: 48.0 kHz, AC3 Dolby Digital, 2/0 (L,R) ch, ~192 kbps | МVO / Первый канал / вставки MVO от Киномания
Аудио №6: 48.0 kHz, Digital Theater Systems Master Audio, 3/2 (L,C,R,l,r) + LFE ch, ~2262 kbps / 16-bits | Андрей Гаврилов
Аудио №7: 48.0 kHz, Digital Theater Systems Master Audio, 3/2 (L,C,R,l,r) + LFE ch, ~2263 kbps / 16-bits | Юрий Живов
Аудио №8: 48.0 kHz, AC3 Dolby Digital, 2/0 (L,R) ch, ~192 kbps | АVO / Сергей Рябов / вставки Андрея Гаврилова
Аудио №9: 48.0 kHz, AC3 Dolby Digital, 2/0 (L,R) ch, ~192 kbps | МVO / украинский / Інтер / вставки украинского VO
Аудио №10: 48.0 kHz, Digital Theater Systems Master Audio, 3/2 (L,C,R,l,r) + LFE ch, ~2259 kbps / 16-bits | ENG
Формат субтитров: UTF-8 Plain Text
Бюджет: $95 000 000
Дата премьеры (мир): 2 августа 2000
релиз на Blu-Ray: 11 декабря 2008, «Columbia/Sony»

Дополнительная информация: благодарность за помощь в создании релиза: walker772, d_rocker, JUSTKANT

BDRemux Info

Unique ID : 187612051948786692928939173934487507960 (0x8D24C452174FD380A19AF13A706F13F8)
Complete name : Невидимка (2000. Hollow Man) [Director's Cut].mkv
Format : Matroska
Format version : Version 4 / Version 2
File size : 29.0 GiB
Duration : 1h 59mn
Overall bit rate mode : Variable
Overall bit rate : 34.8 Mbps
Encoded date : UTC 2016-07-03 15:12:24
Writing application : mkvmerge v9.0.1 ('Obstacles') 64bit
Writing library : libebml v1.3.3 + libmatroska v1.4.4
Cover : Yes
Video
ID : 1
Format : AVC
Format/Info : Advanced Video Codec
Format profile : High@L4.1
Format settings, CABAC : Yes
Format settings, ReFrames : 2 frames
Codec ID : V_MPEG4/ISO/AVC
Duration : 1h 59mn
Bit rate mode : Variable
Bit rate : 25.5 Mbps
Width : 1 920 pixels
Height : 1 080 pixels
Display aspect ratio : 16:9
Frame rate mode : Constant
Frame rate : 23.976 (24000/1001) fps
Color space : YUV
Chroma subsampling : 4:2:0
Bit depth : 8 bits
Scan type : Progressive
Bits/(Pixel*Frame) : 0.512
Stream size : 21.2 GiB (73%)
Title : MPEG-4 AVC Video / 25474 kbps / 1080p / 23.976 fps / 16:9 / High Profile 4.1
Default : Yes
Forced : No
Audio #1
ID : 2
Format : AC-3
Format/Info : Audio Coding 3
Mode extension : CM (complete main)
Format settings, Endianness : Big
Codec ID : A_AC3
Duration : 1h 59mn
Bit rate mode : Constant
Bit rate : 448 Kbps
Channel(s) : 6 channels
Channel positions : Front: L C R, Side: L R, LFE
Sampling rate : 48.0 KHz
Frame rate : 31.250 fps (1536 spf)
Compression mode : Lossy
Stream size : 382 MiB (1%)
Title : Dub
Language : Russian
Default : Yes
Forced : No
Audio #2
ID : 3
Format : AC-3
Format/Info : Audio Coding 3
Mode extension : CM (complete main)
Format settings, Endianness : Big
Codec ID : A_AC3
Duration : 1h 59mn
Bit rate mode : Constant
Bit rate : 640 Kbps
Channel(s) : 6 channels
Channel positions : Front: L C R, Side: L R, LFE
Sampling rate : 48.0 KHz
Frame rate : 31.250 fps (1536 spf)
Compression mode : Lossy
Stream size : 546 MiB (2%)
Title : MVO [Blu-ray CEE]
Language : Russian
Default : No
Forced : No
Audio #3
ID : 4
Format : AC-3
Format/Info : Audio Coding 3
Mode extension : CM (complete main)
Format settings, Endianness : Big
Codec ID : A_AC3
Duration : 1h 59mn
Bit rate mode : Constant
Bit rate : 448 Kbps
Channel(s) : 6 channels
Channel positions : Front: L C R, Side: L R, LFE
Sampling rate : 48.0 KHz
Frame rate : 31.250 fps (1536 spf)
Compression mode : Lossy
Stream size : 382 MiB (1%)
Title : MVO [Киномания]
Language : Russian
Default : No
Forced : No
Audio #4
ID : 5
Format : AC-3
Format/Info : Audio Coding 3
Mode extension : CM (complete main)
Format settings, Endianness : Big
Codec ID : A_AC3
Duration : 1h 59mn
Bit rate mode : Constant
Bit rate : 384 Kbps
Channel(s) : 6 channels
Channel positions : Front: L C R, Side: L R, LFE
Sampling rate : 48.0 KHz
Frame rate : 31.250 fps (1536 spf)
Compression mode : Lossy
Stream size : 328 MiB (1%)
Title : MVO [Видеосервис]
Language : Russian
Default : No
Forced : No
Audio #5
ID : 6
Format : AC-3
Format/Info : Audio Coding 3
Mode extension : CM (complete main)
Format settings, Endianness : Big
Codec ID : A_AC3
Duration : 1h 59mn
Bit rate mode : Constant
Bit rate : 192 Kbps
Channel(s) : 2 channels
Channel positions : Front: L R
Sampling rate : 48.0 KHz
Frame rate : 31.250 fps (1536 spf)
Compression mode : Lossy
Stream size : 164 MiB (1%)
Title : MVO [Первый канал]
Language : Russian
Default : No
Forced : No
Audio #6
ID : 7
Format : DTS
Format/Info : Digital Theater Systems
Format profile : MA / Core
Mode : 16
Format settings, Endianness : Big
Codec ID : A_DTS
Duration : 1h 59mn
Bit rate mode : Variable / Constant
Bit rate : 2 262 Kbps / 1 509 Kbps
Channel(s) : 6 channels
Channel positions : Front: L C R, Side: L R, LFE
Sampling rate : 48.0 KHz
Frame rate : 93.750 fps (512 spf)
Bit depth : 16 bits
Compression mode : Lossless / Lossy
Stream size : 1.88 GiB (7%)
Title : Андрей Гаврилов
Language : Russian
Default : No
Forced : No
Audio #7
ID : 8
Format : DTS
Format/Info : Digital Theater Systems
Format profile : MA / Core
Mode : 16
Format settings, Endianness : Big
Codec ID : A_DTS
Duration : 1h 59mn
Bit rate mode : Variable / Constant
Bit rate : 2 263 Kbps / 1 509 Kbps
Channel(s) : 6 channels
Channel positions : Front: L C R, Side: L R, LFE
Sampling rate : 48.0 KHz
Frame rate : 93.750 fps (512 spf)
Bit depth : 16 bits
Compression mode : Lossless / Lossy
Stream size : 1.89 GiB (7%)
Title : Юрий Живов
Language : Russian
Default : No
Forced : No
Audio #8
ID : 9
Format : AC-3
Format/Info : Audio Coding 3
Mode extension : CM (complete main)
Format settings, Endianness : Big
Codec ID : A_AC3
Duration : 1h 59mn
Bit rate mode : Constant
Bit rate : 192 Kbps
Channel(s) : 2 channels
Channel positions : Front: L R
Sampling rate : 48.0 KHz
Frame rate : 31.250 fps (1536 spf)
Compression mode : Lossy
Stream size : 164 MiB (1%)
Title : Сергей Рябов
Language : Russian
Default : No
Forced : No
Audio #9
ID : 10
Format : AC-3
Format/Info : Audio Coding 3
Mode extension : CM (complete main)
Format settings, Endianness : Big
Codec ID : A_AC3
Duration : 1h 59mn
Bit rate mode : Constant
Bit rate : 192 Kbps
Channel(s) : 2 channels
Channel positions : Front: L R
Sampling rate : 48.0 KHz
Frame rate : 31.250 fps (1536 spf)
Compression mode : Lossy
Stream size : 164 MiB (1%)
Title : MVO [Інтер]
Language : Ukrainian
Default : No
Forced : No
Audio #10
ID : 11
Format : DTS
Format/Info : Digital Theater Systems
Format profile : MA / Core
Mode : 16
Format settings, Endianness : Big
Codec ID : A_DTS
Duration : 1h 59mn
Bit rate mode : Variable / Constant
Bit rate : 2 259 Kbps / 1 509 Kbps
Channel(s) : 6 channels
Channel positions : Front: L C R, Side: L R, LFE
Sampling rate : 48.0 KHz
Frame rate : 93.750 fps (512 spf)
Bit depth : 16 bits
Compression mode : Lossless / Lossy
Stream size : 1.88 GiB (6%)
Language : English
Default : No
Forced : No
Text #1
ID : 12
Format : UTF-8
Codec ID : S_TEXT/UTF8
Codec ID/Info : UTF-8 Plain Text
Duration : 1h 50mn
Bit rate : 72 bps
Count of elements : 1028
Stream size : 58.4 KiB (0%)
Title : v1
Language : Russian
Default : No
Forced : No
Text #2
ID : 13
Format : UTF-8
Codec ID : S_TEXT/UTF8
Codec ID/Info : UTF-8 Plain Text
Duration : 1h 50mn
Bit rate : 67 bps
Count of elements : 1088
Stream size : 54.7 KiB (0%)
Title : v2
Language : Russian
Default : No
Forced : No
Text #3
ID : 14
Format : UTF-8
Codec ID : S_TEXT/UTF8
Codec ID/Info : UTF-8 Plain Text
Duration : 1h 48mn
Bit rate : 42 bps
Count of elements : 1069
Stream size : 33.6 KiB (0%)
Language : English
Default : No
Forced : No
Text #4
ID : 15
Format : UTF-8
Codec ID : S_TEXT/UTF8
Codec ID/Info : UTF-8 Plain Text
Duration : 1h 51mn
Bit rate : 50 bps
Count of elements : 1649
Stream size : 41.1 KiB (0%)
Title : SDH
Language : English
Default : No
Forced : No
Menu
00:00:00.000 : en:Start
00:08:56.494 : en:"I Cracked the Reversion"
00:12:55.149 : en:Isabelle
00:22:41.068 : en:The Reversion
00:28:52.105 : en:Past Imperfect
00:36:02.243 : en:Committee Review
00:47:28.262 : en:Phase Iii Volunteer
00:50:47.627 : en:Superhero Joke
00:59:09.963 : en:Bio-Quantum Phase Shift
01:09:29.874 : en:Not Fade Away
01:12:29.970 : en:Sarah's Late Shift
01:23:45.979 : en:Reversion Failure
01:29:45.797 : en:Plastic Man
01:36:08.971 : en:Going Out
01:42:31.937 : en:Good-Neighbour Policy
01:46:36.473 : en:Sebastian Returns

Скриншоты

[Профиль] [ЛС]
Кто просматривает тему:

Форум Тема Автор Размер
Rock (Рок) Крематорий - Люди-невидимки - 2016, MP3, 256 kbps достали все 73 MB
Da Vinci Learning Da Vinci Learning: BBC: Невидимое простым глазом / Beyond The Naked Eye [серии 1-3 из 3] (Rosalind Bain, Jessica Barrington) [2002 г., Документальный, научно-познавательный, исследования, гипотезы,... skorpionN 1.21 GB
Nat Geo Wild Nat Geo Wild: Дикие острова: Невиданные острова / Unseen Islands [сезон 1 серии 1-2 из 2] (Stewart McPherson) [2015 г., Документальный, научно-познавательный, HDTVRip 720p] skorpionN 3.19 GB
R.G.TorrentFilm Video Дикие острова: Невиданные острова / Unseen Islands (Стюарт МакПерсон / Stewart McPherson) [2015 г., Документальный, флора, фауна, HDTVRip] VО (Олег Белов) Один 777 999 MB
Приключения, Квесты, Логические За гранью невидимого. Сумерки (2015) PC достали все 728 MB
Документальные HD Невиданные Гавайи. Тайны морских глубин / Wild Hawaii. Secrets of the Deep (2013) HDTVRip [H.264/720p] sergej644 2.03 GB
Азиатские фильмы Невиданный цветок / The Flower We Saw That Day / Ano hi mita hana no namae o bokutachi wa mada shiranai (2015) HDTVRip | L достали все 1.45 GB
Фильмы (HD Rips | 720p, 1080p) Невидимая женщина / The Invisible Woman (2013) BDRip 720p | iTunes sergej644 6.1 GB
Показать сообщения:    

Текущее время: Сегодня 21:00

Часовой пояс: GMT



Вы не можете начинать темы
Вы не можете отвечать на сообщения
Вы не можете редактировать свои сообщения
Вы не можете удалять свои сообщения
Вы не можете голосовать в опросах
Вы не можете прикреплять файлы к сообщениям
Вы не можете скачивать файлы