Невидимая сторона / The Blind Side (Джон Ли Хэнкок / John Lee Hancock) [2009, США, драма, биография, спорт, BDRip] MVO (R5)

 
Автор Сообщение

painkiller ®

Стаж: 3 года 2 месяца

Сообщений: 582



Награды: Нет

Торрент-статистика

Создавать темы 15-Авг-2014 10:18

[Цитировать]

Невидимая сторона / The Blind Side
Страна: США
Жанр: драма, биография, спорт
Год выпуска: 2009
Продолжительность: 02:08:33
Перевод: Профессиональный (многоголосый закадровый) Лицензия R5
Cубтитры: нет
Режиссер: Джон Ли Хэнкок / John Lee Hancock
В ролях: Сандра Буллок, Тим МакГроу, Куинтон Аарон, Джей Хед, Лили Коллинз, Рэй МакКиннон, Ким Диккенс, Адриан Ленокс, Кэти Бейтс
Описание: Благополучная белая семья берет к себе толстого, неграмотного бездомного негритянского подростка и помогает стать ему спортивной звездой и поступить в университет.
Доп. информация:
Качество видео: BDRip | Sunny/1080p BD-Remux
Формат видео: AVI
Видео: 720x400 (1.80:1), 23.976 fps, XviD build 73 ~1418 kbps avg, 0.20 bit/pixel
Аудио: 48 kHz, AC3 Dolby Digital, 2/0 (L,R) ch, ~192 kbps

MediaInfo

Общее
Полное имя : C:\Documents and Settings\Пользователь\Рабочий стол\Торрентс.ру\The.Blind.Side.2009.BDRip.MVO_by_LBS.avi
Формат : AVI
Формат/Информация : Audio Video Interleave
Размер файла : 1,45 Гбайт
Продолжительность : 2 ч. 8 м.
Общий поток : 1620 Кбит/сек
Режиссёр : Last Boy Scout
Программа кодирования : VirtualDubMod 1.5.10.3 | www.virtualdub-fr.org || (build 2550/release)
Правообладатель : torrentfilm.net 02.02.2014
Примечание : BDRip MVO (R5)
Видео
Идентификатор : 0
Формат : MPEG-4 Visual
Профиль формата : Advanced Simple@L5
Параметр BVOP формата : 1
Параметр QPel формата : Нет
Параметр GMC формата : Без точки перехода
Параметр матрицы формата : Выборочная
Идентификатор кодека : XVID
Идентификатор кодека/Подсказка : XviD
Продолжительность : 2 ч. 8 м.
Битрейт : 1419 Кбит/сек
Ширина : 720 пикселей
Высота : 400 пикселей
Соотношение сторон : 16:9
Частота кадров : 23,976 кадра/сек
Цветовое пространство : YUV
Субдискретизация насыщенности : 4:2:0
Битовая глубина : 8 бит
Тип развёртки : Прогрессивная
Метод сжатия : С потерями
Бит/(Пиксели*Кадры) : 0.205
Размер потока : 1,27 Гбайт (88%)
Библиотека кодирования : XviD 73
Аудио
Идентификатор : 1
Формат : AC-3
Формат/Информация : Audio Coding 3
Расширение режима : CM (complete main)
Параметр Endianness формата : Big
Идентификатор кодека : 2000
Продолжительность : 2 ч. 8 м.
Вид битрейта : Постоянный
Битрейт : 192 Кбит/сек
Каналы : 2 канала
Расположение каналов : Front: L R
Частота : 48,0 КГц
Битовая глубина : 16 бит
Метод сжатия : С потерями
Размер потока : 176 Мбайт (12%)
Выравнивание : Разделение по промежуткам
Продолжительность промежутка : 42 мс. (1,00 видеокадр)
Время предзагрузки промежутка : 500 мс.

Скриншоты

--
[Профиль] [ЛС]

Создавать темы 06-Авг-2015 23:10 (спустя 11 месяцев 22 дня)

Топик был перенесен из форума Фильмы до 2014 года в форум Фильмы до 2012 года
sergej644
 

Создавать темы 12-Июн-2016 08:48 (спустя 1 год 9 месяцев)

Топик был перенесен из форума Фильмы 2011 года в форум Фильмы 2009 года
Russian Mafia
 
Кто просматривает тему:

Форум Тема Автор Размер
Rock (Рок) Крематорий - Люди-невидимки - 2016, MP3, 256 kbps достали все 73 MB
BBC BBC: Невидимые города Италии / Italy's Invisible Cities [серии 1-3 из 3] (Harvey Lilley) [2016 г., Документальный, научно-популярный, история, исследования, SATRip] skorpionN 1.64 GB
Da Vinci Learning Da Vinci Learning: BBC: Невидимое простым глазом / Beyond The Naked Eye [серии 1-3 из 3] (Rosalind Bain, Jessica Barrington) [2002 г., Документальный, научно-познавательный, исследования, гипотезы,... skorpionN 1.21 GB
Nat Geo Wild Nat Geo Wild: Дикие острова: Невиданные острова / Unseen Islands [сезон 1 серии 1-2 из 2] (Stewart McPherson) [2015 г., Документальный, научно-познавательный, HDTVRip 720p] skorpionN 3.19 GB
R.G.TorrentFilm Video Дикие острова: Невиданные острова / Unseen Islands (Стюарт МакПерсон / Stewart McPherson) [2015 г., Документальный, флора, фауна, HDTVRip] VО (Олег Белов) Один 777 999 MB
Приключения, Квесты, Логические За гранью невидимого. Сумерки (2015) PC достали все 728 MB
Документальные HD Невиданные Гавайи. Тайны морских глубин / Wild Hawaii. Secrets of the Deep (2013) HDTVRip [H.264/720p] sergej644 2.03 GB
Азиатские фильмы Невиданный цветок / The Flower We Saw That Day / Ano hi mita hana no namae o bokutachi wa mada shiranai (2015) HDTVRip | L достали все 1.45 GB
Показать сообщения:    

Текущее время: Сегодня 09:57

Часовой пояс: GMT



Вы не можете начинать темы
Вы не можете отвечать на сообщения
Вы не можете редактировать свои сообщения
Вы не можете удалять свои сообщения
Вы не можете голосовать в опросах
Вы не можете прикреплять файлы к сообщениям
Вы не можете скачивать файлы