Невеста моего жениха (Владимир Потапов) [2013, Россия, мелодрама, HDTVRip 720p]

 
Автор Сообщение

TorrentFilm ®

Пол:

Стаж: 2 года

Сообщений: 7741



Награды: Нет

Торрент-статистика

Создавать темы 01-Янв-2016 00:18

[Цитировать]

Невеста моего жениха
Выпущено: Россия, кинокомпания "Русское"
Жанр: мелодрама
Год выпуска: 2013
Продолжительность: 01:33:24
Субтитры: нет
Режиссер: Владимир Потапов
В ролях: Татьяна Федоровская, Александр Константинов, Мария Кононова, Людмила Гаврилова, Владимир Жеребцов, Екатерина Травова, Евгения Крылова, Юрий Мосейчук, Наталья Унгард, Ирина Померанцева, Сергей Серов, Сергей Погосян
Описание: Юля молода, красива и успешна в карьере, но личного счастья в ее жизни давно нет. Три года назад она отказалась уехать в провинцию со своим женихом Вадимом, предпочтя выгодную работу в столице, но найти жениху достойную замену так и не смогла. После очередной неудачной попытки у Юли происходит переоценка ценностей, и девушка решает вернуться к проверенному временем и бесконечно любящему ее Вадиму. Однако, героиню ждут плохие новости: молодой человек встретил свою любовь и вот-вот женится на другой. Привыкшая побеждать, Юля решает не сдаваться без боя: она бросает всё и едет в сибирское захолустье в полной решимости вернуть «лучшего мужчину своей жизни»...

Автор рипа / записи: fanatus
Качество видео: HDTVRip 720p
Исходник: Запись с телеканала РОССИЯ HD
Контейнер: MKV
Видео: MPEG-4 AVC, 3500 kbps , 1280x720 (16:9), 25.000 fps, 0.152 bit/pixel
Аудио: AC3, 2 ch, 48 kHz, 192 kbps

MediaInfo

General
Unique ID : 242996846920064334903037540827651202827 (0xB6CF7D8A09111CE58E776D7C77355F0B)
Complete name : F:\Nevesta moego zheniha.2013.x264.HDTVRip.720p.fanatus.mkv
Format : Matroska
Format version : Version 2
File size : 2.41 GiB
Duration : 1h 33mn
Overall bit rate : 3 693 Kbps
Movie name : Nevesta moego zheniha (2013) - fanatus
Encoded date : UTC 2013-10-12 06:21:10
Writing application : mkvmerge v3.4.0 ('Rapunzel') сборка от May 15 2010 09:38:20
Writing library : libebml v0.8.0 + libmatroska v0.9.0
Video
ID : 1
Format : AVC
Format/Info : Advanced Video Codec
Format profile : High@L4.1
Format settings, CABAC : Yes
Format settings, ReFrames : 9 frames
Codec ID : V_MPEG4/ISO/AVC
Duration : 1h 33mn
Bit rate : 3 500 Kbps
Width : 1 280 pixels
Height : 720 pixels
Display aspect ratio : 16:9
Frame rate : 25.000 fps
Color space : YUV
Chroma subsampling : 4:2:0
Bit depth : 8 bits
Scan type : Progressive
Bits/(Pixel*Frame) : 0.152
Stream size : 2.24 GiB (93%)
Title : Nevesta moego zheniha (2013)
Writing library : x264 core 138 r2358 9e941d1
Encoding settings : cabac=1 / ref=9 / deblock=1:-2:-2 / analyse=0x3:0x113 / me=umh / subme=10 / psy=1 / psy_rd=1.00:0.10 / mixed_ref=1 / me_range=32 / chroma_me=1 / trellis=2 / 8x8dct=1 / cqm=0 / deadzone=21,11 / fast_pskip=0 / chroma_qp_offset=-3 / threads=16 / lookahead_threads=2 / sliced_threads=0 / nr=0 / decimate=0 / interlaced=0 / bluray_compat=0 / constrained_intra=0 / bframes=9 / b_pyramid=2 / b_adapt=2 / b_bias=0 / direct=3 / weightb=1 / open_gop=0 / weightp=2 / keyint=250 / keyint_min=25 / scenecut=40 / intra_refresh=0 / rc=2pass / mbtree=0 / bitrate=3500 / ratetol=1.0 / qcomp=0.65 / qpmin=0 / qpmax=69 / qpstep=4 / cplxblur=20.0 / qblur=0.5 / ip_ratio=1.40 / pb_ratio=1.30 / aq=1:0.90
Language : Russian
Default : Yes
Forced : No
Matrix coefficients : BT.709-5, BT.1361, IEC 61966-2-4 709, SMPTE RP177
Audio
ID : 2
Format : AC-3
Format/Info : Audio Coding 3
Mode extension : CM (complete main)
Format settings, Endianness : Big
Codec ID : A_AC3
Duration : 1h 33mn
Bit rate mode : Constant
Bit rate : 192 Kbps
Channel(s) : 2 channels
Channel positions : Front: L R
Sampling rate : 48.0 KHz
Bit depth : 16 bits
Compression mode : Lossy
Stream size : 128 MiB (5%)
Language : Russian
Default : Yes
Forced : No

Скриншот c названием фильма

Скриншоты

[Профиль] [ЛС]
Показать сообщения:    

Текущее время: Сегодня 07:14

Часовой пояс: GMT



Вы не можете начинать темы
Вы не можете отвечать на сообщения
Вы не можете редактировать свои сообщения
Вы не можете удалять свои сообщения
Вы не можете голосовать в опросах
Вы не можете прикреплять файлы к сообщениям
Вы не можете скачивать файлы