Невероятный Блинки Билл / Blinky Bill the Movie (2015) HDRip | iTunes

 
Автор Сообщение

Russian Mafia ®

Пол:

Стаж: 1 год 8 месяцев

Сообщений: 4252



Награды: 10 (Подробнее)

Mega Seeder 4 (Количество: 1) Mega Seeder 2 (Количество: 1) Mega Seeder 1 (Количество: 1)
Торрент-статистика

Создавать темы 27-Авг-2016 11:29

[Цитировать]

Невероятный Блинки Билл / Blinky Bill the Movie
Страна: Австралия США
Производство: Assemblage Entertainment, Flying Bark Productions, Telegael
Год выпуска: 2015
Жанр: мультфильм, приключения, семейный
Продолжительность: 01:30:57
Режиссеры: Дин Тейлор, Ноэль Клири, Алекс Стадерманн
Автор сценария: Фин Эдквист
В ролях: Тони Коллетт, Руфус Сьюэлл, Робин МакЛиви, Дэвид Уэнэм, Райан Квантен, Ричард Роксбург, Бэрри Хамфриз
Роли дублировали: Ольга Голованова, Александр Груздев, Татьяна Лазарева, Иван Калинин, Александр Олешко
Описание: Блинки Билл — очаровательный и озорной медвежонок-коала, который никого не боится и никогда не сдаётся. Вместе с друзьями — весёлой ящерицей и добрыми страусами Эму — ему надо преодолеть миллион опасностей в диких джунглях, чтобы найти пропавшего отца. Новые герои, яркий красочный мир экзотического континента и настоящее большое приключение..!

Перевод: Профессиональный (полное дублирование) | iTunes
Субтитры: нет-Качество: HDRip
Формат: АVI
Видео кодек: XviD
Аудио кодек: АС3
Видео: 720x384 (1.85:1), 24.000 fps, XviD ~1 673 kbps avg
Аудио: 48.0 kHz, AC3 Dolby Digital, 3/2 (L,C,R,l,r) + LFE ch, ~384 kbps
Дата премьеры (мир): 21 августа 2015
Дата премьеры (РФ): 28 июля 2016, «Экспонента»

Media Info

General
Complete name : HeBepoyatnyi.BLyHky.BiLy.2015.D.HDRip.1400MB.avi
Format : AVI
Format/Info : Audio Video Interleave
File size : 1.37 GiB
Duration : 1h 30mn
Overall bit rate : 2 151 Kbps
Writing application : VirtualDubMod 1.5.10.2 (build 2540/release)
Writing library : VirtualDubMod build 2540/release
Video #0
ID : 0
Format : MPEG-4 Visual
Format profile : Advanced Simple@L5
Format settings, BVOP : 2
Format settings, QPel : No
Format settings, GMC : No warppoints
Format settings, Matrix : Default (MPEG)
Codec ID : XVID
Codec ID/Hint : XviD
Duration : 1h 30mn
Bit rate : 1 673 Kbps
Width : 720 pixels
Height : 384 pixels
Display aspect ratio : 1.85:1
Frame rate : 24.000 fps
Color space : YUV
Chroma subsampling : 4:2:0
Bit depth : 8 bits
Scan type : Progressive
Compression mode : Lossy
Bits/(Pixel*Frame) : 0.252
Stream size : 1.06 GiB (78%)
Writing library : XviD 1.2.1 (UTC 2008-12-04)
Audio #1
ID : 1
Format : AC-3
Format/Info : Audio Coding 3
Mode extension : CM (complete main)
Format settings, Endianness : Big
Codec ID : 2000
Duration : 1h 30mn
Bit rate mode : Constant
Bit rate : 384 Kbps
Channel(s) : 6 channels
Channel positions : Front: L C R, Side: L R, LFE
Sampling rate : 48.0 KHz
Compression mode : Lossy
Stream size : 250 MiB (18%)
Alignment : Split accross interleaves

Скриншоты

[Профиль] [ЛС]
Кто просматривает тему:

Форум Тема Автор Размер
PBS PBS: Природа - Невероятные лягушки / PBS: Nature - Fabulous Frogs (Сэлли Томсон / Sally Thomson) [2014, документальный, научно-познавательный, HDTVRip] VO (В. Курдов для AlexFilm) reversefile 719 MB
Телепередачи Динамо. Невероятный иллюзионист / Dynamo. Magician Impossible (2013) HDTVRip (Сезон 3, выпуск 1-4 из 4) sergej644 2.14 GB
Фильмы (HD Rips | 720p, 1080p) Неверная / Unfaithful (2002) BDRip 1080p by msltel Russian Mafia 15.7 GB
Фильмы 2010 года Неверный / The Infidel (Джош Аппиньянези / Josh Appignanesi) [2010, Великобритания, драма, комедия, BDRip] DVO (R5) + Sub (Rus, Eng) + Original (Eng) TorrentFilm 2.18 GB
Фильмы (HD Rips | 720p, 1080p) Невероятная правда / The Unbelievable Truth (1989) BDRip 1080p | P2, L1 Russian Mafia 7.93 GB
Зарубежные мультфильмы Невероятная тайна Лулу / Loulou, l'incroyable secret (2013) BDRip 1080p | iTunes BOSS 4.59 GB
Зарубежные мультфильмы Невероятная тайна Лулу / Loulou, l'incroyable secret (2013) BDRip 720p | iTunes BOSS 2.4 GB
Зарубежные мультфильмы Невероятная тайна Лулу / Loulou, l'incroyable secret (2013) HDRip | iTunes BOSS 1.37 GB
Показать сообщения:    

Текущее время: Сегодня 00:44

Часовой пояс: GMT



Вы не можете начинать темы
Вы не можете отвечать на сообщения
Вы не можете редактировать свои сообщения
Вы не можете удалять свои сообщения
Вы не можете голосовать в опросах
Вы не можете прикреплять файлы к сообщениям
Вы не можете скачивать файлы