Невероятные приключения итальянцев в России (Эльдар Рязанов)[1973, комедия, приключения, DVDRip-AVC]

 
Автор Сообщение

sergej644 ®

Пол:

Стаж: 4 года 11 месяцев

Сообщений: 6046

Откуда: Soviet Union



Награды: Нет

Торрент-статистика

Создавать темы 11-Июл-2015 13:05

[Цитировать]

--Невероятные приключения итальянцев в России DVDRip
Страна: СССР, Италия
Производство: Dino de Laurentiis Cinematografica, Мосфильм, Produzioni Cinematografiche Inter. Ma. Co.
Жанр: комедия, приключения
Год выпуска: 1973
Продолжительность: 01:38:00
Перевод: не требуется
Оригинальная аудиодорожка: русский
Cубтитры: нет
Режиссер: Эльдар Рязанов
В ролях:
Андрей Миронов, Нинетто Даволи, Антония Сантилли, Алигьеро Носкезе, Тано Чимароза, Джиджи Баллиста, Евгений Евстигнеев, Ольга Аросева, Лариса Виккел, Александр Лукьянов
Роли дублировали: Михаил Кононов, Наталья Гурзо, Александр Белявский, Михаил Глузский, Яков Беленький
Описание:
В одной из больниц Рима скончалась русская эмигрантка. Перед смертью пожилая дама, некогда эмигрировавшая из России, успела поведать своей внучке Ольге, что всё её огромное состояние спрятано в Ленинграде «подо львом». Это обстоятельство явилось причиной срочного старта в Ленинград всех тех, кто случайно был посвящен в эту тайну — самой Ольги, двух санитаров Антонио и Джузеппе, врача из больницы, ещё одного пациента той больницы со сломаной ногой и случайно узнавшего обо всём этом мафиозо Розарио Агро. В самолете, летящем в Москву, вся «компания», неожиданно друг для друга, встретилась. Во время полета мафиозо незаметно выкрал у врача паспорт и выбросил его в унитаз. Однако выброшенный паспорт прилип снаружи к стеклу иллюминатора. Пытаясь сбить паспорт ударами ног, мафиозо разбил стекло, куда его через несколько секунд и засосало выходящим из салона самолета воздухом. Пилоты приняли решение об экстренной посадке, и самолет, с застрявшим в окне мафиозо, совершил посадку на автостраду. После посадки солидного врача так и не выпустили из самолета из-за отсутствия паспорта. Остальных же встречал с цветами некий Андрей, под предлогом того, что один из санитаров — Антонио — «миллионный итальянский турист, который посещает CCCР», и Андрей будет персональным гидом…- -Исходник: DVD9 R5
Тип релиза: DVDRip-AVC
Контейнер: MKV
Видео: 720->768x556 (1,381:1), 25 fps, H264 ~ 1675 kbps avg, 0.167 bit/pixel
Аудио: 48 kHz, Dolby AC3 5.1, 448 kbps

MediaInfo

Общее
Полное имя                               : Neveroyatnye.priklyucheniya.italyancev.v.Rossii.1973.DVDRip-AVC_[Youtracker]_by_AVP Studio.mkv
Формат                                   : Matroska
Версия формата                           : Version 2
Размер файла                             : 1,46 Гбайт
Продолжительность                        : 1 ч. 38 м.
Общий поток                              : 2125 Кбит/сек
Дата кодирования                         : UTC 2013-08-02 16:08:22
Программа кодирования                    : mkvmerge v5.0.1 ('Es ist Sommer') built on Nov  6 2011 16:23:40
Библиотека кодирования                   : libebml v1.2.2 + libmatroska v1.3.0
Видео
Идентификатор                            : 1
Формат                                   : AVC
Формат/Информация                        : Advanced Video Codec
Профиль формата                          : High@L4.1
Параметр CABAC формата                   : Да
Параметр ReFrames формата                : 11 кадров
Идентификатор кодека                     : V_MPEG4/ISO/AVC
Продолжительность                        : 1 ч. 38 м.
Битрейт                                  : 1675 Кбит/сек
Ширина                                   : 720 пикселей
Высота                                   : 556 пикселей
Соотношение сторон                       : 1,381
Частота кадров                           : 25,000 кадров/сек
Цветовое пространство                    : YUV
Субдискретизация насыщенности            : 4:2:0
Битовая глубина                          : 8 бит
Тип развёртки                            : Прогрессивная
Бит/(Пиксели*Кадры)                      : 0.167
Размер потока                            : 1,12 Гбайт (77%)
Библиотека кодирования                   : x264 core 130 r2273 b3065e6
Настройки программы                      : cabac=1 / ref=11 / deblock=1:-2:-1 / analyse=0x3:0x113 / me=umh / subme=9 / psy=1 / psy_rd=1.00:0.15 / mixed_ref=1 / me_range=32 / chroma_me=1 / trellis=1 / 8x8dct=1 / cqm=0 / deadzone=21,11 / fast_pskip=0 / chroma_qp_offset=-3 / threads=3 / lookahead_threads=1 / sliced_threads=0 / nr=0 / decimate=0 / interlaced=0 / bluray_compat=0 / constrained_intra=0 / bframes=8 / b_pyramid=2 / b_adapt=2 / b_bias=0 / direct=3 / weightb=1 / open_gop=0 / weightp=2 / keyint=250 / keyint_min=25 / scenecut=40 / intra_refresh=0 / rc_lookahead=60 / rc=2pass / mbtree=1 / bitrate=1675 / ratetol=1.0 / qcomp=0.60 / qpmin=0 / qpmax=69 / qpstep=4 / cplxblur=20.0 / qblur=0.5 / ip_ratio=1.40 / aq=1:1.00
Default                                  : Да
Forced                                   : Нет
Аудио
Идентификатор                            : 2
Формат                                   : AC-3
Формат/Информация                        : Audio Coding 3
Расширение режима                        : CM (complete main)
Идентификатор кодека                     : A_AC3
Продолжительность                        : 1 ч. 38 м.
Вид битрейта                             : Постоянный
Битрейт                                  : 448 Кбит/сек
Каналы                                   : 6 каналов
Расположение каналов                     : Front: L C R, Side: L R, LFE
Частота                                  : 48,0 КГц
Битовая глубина                          : 16 бит
Метод сжатия                             : С потерями
Задержка видео                           : 142 мс.
Размер потока                            : 314 Мбайт (21%)
Default                                  : Да
Forced                                   : Нет

Скриншоты



Последний раз редактировалось: sergej644 (2015-08-07 17:00), всего редактировалось 1 раз
[Профиль] [ЛС]
Кто просматривает тему:

Форум Тема Автор Размер
PBS PBS: Природа - Невероятные лягушки / PBS: Nature - Fabulous Frogs (Сэлли Томсон / Sally Thomson) [2014, документальный, научно-познавательный, HDTVRip] VO (В. Курдов для AlexFilm) reversefile 719 MB
Телепередачи Динамо. Невероятный иллюзионист / Dynamo. Magician Impossible (2013) HDTVRip (Сезон 3, выпуск 1-4 из 4) sergej644 2.14 GB
Фильмы (HD Rips | 720p, 1080p) Неверная / Unfaithful (2002) BDRip 1080p by msltel Russian Mafia 15.7 GB
Фильмы 2010 года Неверный / The Infidel (Джош Аппиньянези / Josh Appignanesi) [2010, Великобритания, драма, комедия, BDRip] DVO (R5) + Sub (Rus, Eng) + Original (Eng) TorrentFilm 2.18 GB
Фильмы (HD Rips | 720p, 1080p) Невероятная правда / The Unbelievable Truth (1989) BDRip 1080p | P2, L1 Russian Mafia 7.93 GB
Зарубежные мультфильмы Невероятная тайна Лулу / Loulou, l'incroyable secret (2013) BDRip 1080p | iTunes BOSS 4.59 GB
Зарубежные мультфильмы Невероятная тайна Лулу / Loulou, l'incroyable secret (2013) BDRip 720p | iTunes BOSS 2.4 GB
Зарубежные мультфильмы Невероятная тайна Лулу / Loulou, l'incroyable secret (2013) HDRip | iTunes BOSS 1.37 GB
Показать сообщения:    

Текущее время: Сегодня 11:06

Часовой пояс: GMT



Вы не можете начинать темы
Вы не можете отвечать на сообщения
Вы не можете редактировать свои сообщения
Вы не можете удалять свои сообщения
Вы не можете голосовать в опросах
Вы не можете прикреплять файлы к сообщениям
Вы не можете скачивать файлы