Невероятные приключения американца в Армении / Lost and Found in Armenia (2012) WEB-DL 720p от Сinemania

 
Автор Сообщение

sergej644 ®

Пол:

Стаж: 5 лет 7 месяцев

Сообщений: 6108

Откуда: Soviet Union



Награды: 9 (Подробнее)

Mega Seeder 4 (Количество: 1) Top Seeder 2 (Количество: 1) Top Seeder 5 (Количество: 1)
Торрент-статистика

Создавать темы 11-Фев-2015 06:48

[Цитировать]

Информация о фильме
Название: Невероятные приключения американца в Армении
Оригинальное название: Lost and Found in Armenia
Год выхода: 2012
Жанр: Комедия
Режиссер: Гор Киракосян
В ролях: Дейв Шеридан, Джейми Кеннеди, Анджела Сарафян, Сердар Кэлсин, Бобби Беркмен, Мориса Харба, Алекс Калогномос, Марк Герагос, Вачик Мангассариан, Микаел Погосян
О фильме:
На морском побережье солнечной Турции царит беззаботное веселье, и только сын американского сенатора страдает от несчастной любви. Ничто не может вернуть ему вкус к жизни — ни море, ни друзья, ни красивые девушки. Но неожиданное событие вмиг излечивает героя от хандры: «попутный» ветер уносит его в соседнюю Армению, в маленькую горную деревню, где его — полуголого, с парашютом за спиной и говорящего на непонятном языке — принимают за турецко-азербайджанского шпиона. В стране, о существовании которой самонадеянный американец еще вчера даже не догадывался, его ждет невероятный водоворот событий — с похищением, перестрелкой, погоней и, конечно же, романтической историей…

Официальный сайт
Выпущено: США, Армения / Red Tie Films, Filmworks/FX
Продолжительность: 01:40:38
Перевод: Дублированный [Лицензия]
Файл
Формат: MKV
Качество: WEB-DL 720p
Видео: MPEG-4 AVC, 3848 Кбит/с, 1280х720
Аудио: Русский (AC3, 6 ch, 384 Кбит/с)
Субтитры: Русские

Ограничение:

12+ зрителям, достигшим 12 лет

Media Info:


Общее
Уникальный идентификатор : 254140969098236377590642322493396192788 (0xBF31C52EFC3B3E81AAA420BDB0378E14)
Полное имя : F:Раздача HDLost.and.Found.in.Armenia.2012.WEB.DL.720p.mkv
Формат : Matroska
Версия формата : Version 4 / Version 2
Размер файла : 3,04 Гбайт
Продолжительность : 1 ч. 40 м.
Общий поток : 4318 Кбит/сек
Название фильма : Release Group CINEMANIA
Дата кодирования : UTC 2014-10-23 16:45:11
Программа кодирования : mkvmerge v7.2.0 ('On Every Street') 64bit built on Sep 13 2014 15:52:10
Библиотека кодирования : libebml v1.3.0 + libmatroska v1.4.1
Видео
Идентификатор : 1
Формат : AVC
Формат/Информация : Advanced Video Codec
Профиль формата : High@L3.1
Параметр CABAC формата : Нет
Параметр ReFrames формата : 2 кадра
Идентификатор кодека : V_MPEG4/ISO/AVC
Продолжительность : 1 ч. 40 м.
Битрейт : 3848 Кбит/сек
Ширина : 1280 пикселей
Высота : 720 пикселей
Соотношение сторон : 16:9
Режим частоты кадров : Постоянный
Частота кадров : 24,000 кадра/сек
Цветовое пространство : YUV
Субдискретизация насыщенности : 4:2:0
Битовая глубина : 8 бит
Тип развёртки : Прогрессивная
Бит/(Пиксели*Кадры) : 0.174
Размер потока : 2,71 Гбайт (89%)
Заголовок : Release Group CINEMANIA
Язык : English
Default : Да
Forced : Нет
Основные цвета : BT.709
Характеристики трансфера : BT.709
Коэффициенты матрицы : BT.709
Аудио
Идентификатор : 2
Формат : AC-3
Формат/Информация : Audio Coding 3
Расширение режима : CM (complete main)
Параметр Endianness формата : Big
Идентификатор кодека : A_AC3
Продолжительность : 1 ч. 40 м.
Вид битрейта : Постоянный
Битрейт : 384 Кбит/сек
Каналы : 6 каналов
Расположение каналов : Front: L C R, Side: L R, LFE
Частота : 48,0 КГц
Битовая глубина : 16 бит
Метод сжатия : С потерями
Размер потока : 276 Мбайт (9%)
Заголовок : Лицензия
Язык : Russian
Default : Да
Forced : Да
Текст
Идентификатор : 3
Формат : UTF-8
Идентификатор кодека : S_TEXT/UTF8
Идентификатор кодека/Информация : UTF-8 Plain Text
Язык : Russian
Default : Да
Forced : Да

Скриншоты

[Профиль] [ЛС]
Кто просматривает тему:

Форум Тема Автор Размер
Nat Geo Wild NGW: Невероятные клыки / Incredible Fangs (David S. Falcone) [2016 г., Документальный, научно-популярный, HDTVRip-AVC 720p] skorpionN 1.59 GB
PBS PBS: Природа - Невероятные лягушки / PBS: Nature - Fabulous Frogs (Сэлли Томсон / Sally Thomson) [2014, документальный, научно-познавательный, HDTVRip] VO (В. Курдов для AlexFilm) reversefile 719 MB
Фильмы (HD Rips | 720p, 1080p) Неверная / Unfaithful (2002) BDRip 1080p by msltel Russian Mafia 15.7 GB
Фильмы 2010 года Неверный / The Infidel (Джош Аппиньянези / Josh Appignanesi) [2010, Великобритания, драма, комедия, BDRip] DVO (R5) + Sub (Rus, Eng) + Original (Eng) TorrentFilm 2.18 GB
Фильмы (HD Rips | 720p, 1080p) Невероятная правда / The Unbelievable Truth (1989) BDRip 1080p | P2, L1 Russian Mafia 7.93 GB
Зарубежные мультфильмы Невероятная тайна Лулу / Loulou, l'incroyable secret (2013) BDRip 1080p | iTunes BOSS 4.59 GB
Зарубежные мультфильмы Невероятная тайна Лулу / Loulou, l'incroyable secret (2013) BDRip 720p | iTunes BOSS 2.4 GB
Зарубежные мультфильмы Невероятная тайна Лулу / Loulou, l'incroyable secret (2013) HDRip | iTunes BOSS 1.37 GB
Показать сообщения:    

Текущее время: Сегодня 00:20

Часовой пояс: GMT



Вы не можете начинать темы
Вы не можете отвечать на сообщения
Вы не можете редактировать свои сообщения
Вы не можете удалять свои сообщения
Вы не можете голосовать в опросах
Вы не можете прикреплять файлы к сообщениям
Вы не можете скачивать файлы