Невероятное перемещение (Александр Анисимов) [2014, Беларусь, Детский, приключения, SATRip]

 
Автор Сообщение

Один 777 ®

Пол:

Стаж: 1 год 8 месяцев

Сообщений: 456

Откуда: Луцк



Награды: 7 (Подробнее)

Mega Releaser 1 (Количество: 1) Mega Seeder 2 (Количество: 1) Mega Seeder 3 (Количество: 1)
Торрент-статистика

Создавать темы 05-Сен-2016 14:07

[Цитировать]

Невероятное перемещение
Год выпуска: 2014
Страна: Беларусь / Беларусьфильм
Жанр: Детский, приключения
Продолжительность: 01:29:22
Перевод: Не требуется (русский язык)
Cубтитры: нет
Режиссер: Александр Анисимов
В ролях: Сева Малицкий, Катя Острога, Александр Овчинников, Дмитрий Есеневич, Геннадий Фомин, Наталья Горбатенко, Сергей Савенков, Артур Шуляк, Диана Чикранова, Маша Козловская, Анатолий Голуб, Анна Южакова, Светлана Суховей, Александр Жданович, Инна Савенкова, Алеся Лесникова, Наталья Онищенко, Виктор Васильев, Александр Демьянков...
Описание: Школьник Ваня Фёдоров убегает с уроков, чтобы, воспользовавшись отсутствием родителей, протестировать изобретенную им самим универсальную компьютерную программу для приготовления уроков. Но из-за сбоя в программе Ваня вместо ожидаемого реферата получает трёх гостей из прошлого, одним из которых является не кто-нибудь, а Филипп Ауреол Теофраст Бомбаст фон Гогенхайм, в будущем известный, как доктор медицины Парацельс. Ваня и его сестра Лиза должны во что бы то ни стало успеть вернуть Парацельса в прошлое, чтобы он мог совершить свои открытия и остановить вспышку чумы…

Сэмпл: http://sendfile.su/1263095

Качество видео: SATRip
Формат видео: AVI
Видео кодек: XviD
Аудио кодек: МР3
Видео: 640x272 (2.35:1), 25 fps, XviD build 73 ~1035 kbps avg, 0.24 bit/pixel
Аудио: 48 kHz, MPEG Layer 3, 2 ch, ~128.00 kbps avg

MediaInfo

Общее
Полное имя : D:\Neverojatnoe.peremeshenie.2014.SATRip.740.[Один 777].avi
Формат : AVI
Формат/Информация : Audio Video Interleave
Размер файла : 750 Мбайт
Продолжительность : 1 ч. 29 м.
Общий поток : 1174 Кбит/сек
Программа кодирования : VirtualDubMod 1.5.10.3 | www.virtualdub-fr.org || (build 2550/release)
Библиотека кодирования : VirtualDubMod build 2550/release
Видео
Идентификатор : 0
Формат : MPEG-4 Visual
Профиль формата : Advanced Simple@L5
Параметр BVOP формата : 1
Параметр QPel формата : Нет
Параметр GMC формата : Без точки перехода
Параметр матрицы формата : Default (H.263)
Идентификатор кодека : XVID
Идентификатор кодека/Подсказка : XviD
Продолжительность : 1 ч. 29 м.
Битрейт : 1036 Кбит/сек
Ширина : 640 пикселей
Высота : 272 пикселя
Соотношение сторон : 2,35:1
Частота кадров : 25,000 кадров/сек
Цветовое пространство : YUV
Субдискретизация насыщенности : 4:2:0
Битовая глубина : 8 бит
Тип развёртки : Прогрессивная
Метод сжатия : С потерями
Бит/(Пиксели*Кадры) : 0.238
Размер потока : 662 Мбайт (88%)
Библиотека кодирования : XviD 73
Аудио
Идентификатор : 1
Формат : MPEG Audio
Версия формата : Version 1
Профиль формата : Layer 3
Идентификатор кодека : 55
Идентификатор кодека/Подсказка : MP3
Продолжительность : 1 ч. 29 м.
Вид битрейта : Постоянный
Битрейт : 128 Кбит/сек
Каналы : 2 канала
Частота : 48,0 КГц
Метод сжатия : С потерями
Размер потока : 81,8 Мбайт (11%)
Выравнивание : Соединение по промежуткам
Продолжительность промежутка : 40 мс. (1,00 видеокадр)
Время предзагрузки промежутка : 504 мс.
Библиотека кодирования : LAME3.99r
Настройки программы : -m s -V 4 -q 2 -lowpass 17 -b 128

Скриншот c названием фильма

Скриншоты

[Профиль] [ЛС]
Кто просматривает тему:

Форум Тема Автор Размер
PBS PBS: Природа - Невероятные лягушки / PBS: Nature - Fabulous Frogs (Сэлли Томсон / Sally Thomson) [2014, документальный, научно-познавательный, HDTVRip] VO (В. Курдов для AlexFilm) reversefile 719 MB
Телепередачи Динамо. Невероятный иллюзионист / Dynamo. Magician Impossible (2013) HDTVRip (Сезон 3, выпуск 1-4 из 4) sergej644 2.14 GB
Фильмы (HD Rips | 720p, 1080p) Неверная / Unfaithful (2002) BDRip 1080p by msltel Russian Mafia 15.7 GB
Фильмы 2010 года Неверный / The Infidel (Джош Аппиньянези / Josh Appignanesi) [2010, Великобритания, драма, комедия, BDRip] DVO (R5) + Sub (Rus, Eng) + Original (Eng) TorrentFilm 2.18 GB
Фильмы (HD Rips | 720p, 1080p) Невероятная правда / The Unbelievable Truth (1989) BDRip 1080p | P2, L1 Russian Mafia 7.93 GB
Зарубежные мультфильмы Невероятная тайна Лулу / Loulou, l'incroyable secret (2013) BDRip 1080p | iTunes BOSS 4.59 GB
Зарубежные мультфильмы Невероятная тайна Лулу / Loulou, l'incroyable secret (2013) BDRip 720p | iTunes BOSS 2.4 GB
Зарубежные мультфильмы Невероятная тайна Лулу / Loulou, l'incroyable secret (2013) HDRip | iTunes BOSS 1.37 GB
Показать сообщения:    

Текущее время: Сегодня 18:16

Часовой пояс: GMT



Вы не можете начинать темы
Вы не можете отвечать на сообщения
Вы не можете редактировать свои сообщения
Вы не можете удалять свои сообщения
Вы не можете голосовать в опросах
Вы не можете прикреплять файлы к сообщениям
Вы не можете скачивать файлы