Неверный / The Infidel (Джош Аппиньянези / Josh Appignanesi) [2010, Великобритания, драма, комедия, BDRip] DVO (R5) + Sub (Rus, Eng) + Original (Eng)

 
Автор Сообщение

TorrentFilm ®

Пол:

Стаж: 2 года

Сообщений: 7741



Награды: Нет

Торрент-статистика

Создавать темы 28-Мар-2016 00:09

[Цитировать]

Неверный / The Infidel
Страна: Великобритания
Жанр: драма, комедия
Годы выпуска: 2010
Продолжительность: 01:45:02
Перевод: Профессиональный (двухголосый закадровый) Лицензия
Субтитры: русские, английские
Оригинальная аудиодорожка: английский
Режиссер: Джош Аппиньянези / Josh Appignanesi
В ролях: Омид Джалили, Ричард Шифф, Арчи Панджаби, Игал Наор, Амит Шах
Описание: Махмуд Назир — счастливый отец семейства и владелец небольшой таксомоторной компании в Лондоне. Особой религиозностью никогда не отличался. Однако когда сын задумал жениться на девушке по имени Узма, мать которой вышла замуж за экстремистского исламского проповедника Аршада, Назир, чтобы не ударить лицом в грязь перед новой родней, решил показать себя правоверным мусульманином.
Но в тот же день на него обрушивается неожиданное известие: разбирая старые бумаги матери, он находит свидетельство об усыновлении. Оказывается, что Махмуд — урожденный еврей, и зовут его Соли Шимшиловиц!!!

Доп. информация:
Качество видео: BDRip | irrlicht/1080p BD-Remux
Формат видео: AVI
Видео: 720x400 (1.80:1), 24.000 fps, XviD MPEG-4 ~2068 kbps avg, 0.30 bit/pixel
Аудио 1: 48 kHz, AC3 Dolby Digital, 3/2 (L,C,R,l,r) + LFE ch, ~448 kbps DVO
Аудио 2: 48 kHz, AC3 Dolby Digital, 3/2 (L,C,R,l,r) + LFE ch, ~448 kbps оригинал
Формат субтитров: softsub (SRT)

MediaInfo

General
Complete name : C:\Users\User\Desktop\The.Infidel.2010.BDRip.DVO.Eng_by_LBS.avi
Format : AVI
Format/Info : Audio Video Interleave
Format profile : OpenDML
File size : 2.18 GiB
Duration : 1h 45mn
Overall bit rate : 2 971 Kbps
Director : Last Boy Scout
Writing application : VirtualDubMod 1.5.10.3 | www.virtualdub-fr.org || (build 2550/release)
Copyright : torrentfilm.net 27.03.2016
Comment : BDRip DVO (R5) + Original (Eng)
Video
ID : 0
Format : MPEG-4 Visual
Format profile : Advanced Simple@L5
Format settings, BVOP : 1
Format settings, QPel : No
Format settings, GMC : No warppoints
Format settings, Matrix : Custom
Codec ID : XVID
Codec ID/Hint : XviD
Duration : 1h 45mn
Bit rate : 2 057 Kbps
Width : 720 pixels
Height : 400 pixels
Display aspect ratio : 16:9
Frame rate : 24.000 fps
Color space : YUV
Chroma subsampling : 4:2:0
Bit depth : 8 bits
Scan type : Progressive
Compression mode : Lossy
Bits/(Pixel*Frame) : 0.298
Stream size : 1.51 GiB (69%)
Writing library : XviD 73
Audio #1
ID : 1
Format : AC-3
Format/Info : Audio Coding 3
Mode extension : CM (complete main)
Format settings, Endianness : Big
Codec ID : 2000
Duration : 1h 45mn
Bit rate mode : Constant
Bit rate : 448 Kbps
Channel(s) : 6 channels
Channel positions : Front: L C R, Side: L R, LFE
Sampling rate : 48.0 KHz
Bit depth : 16 bits
Compression mode : Lossy
Stream size : 337 MiB (15%)
Alignment : Split accross interleaves
Interleave, duration : 42 ms (1.00 video frame)
Interleave, preload duration : 500 ms
Audio #2
ID : 2
Format : AC-3
Format/Info : Audio Coding 3
Mode extension : CM (complete main)
Format settings, Endianness : Big
Codec ID : 2000
Duration : 1h 45mn
Bit rate mode : Constant
Bit rate : 448 Kbps
Channel(s) : 6 channels
Channel positions : Front: L C R, Side: L R, LFE
Sampling rate : 48.0 KHz
Bit depth : 16 bits
Compression mode : Lossy
Stream size : 337 MiB (15%)
Alignment : Split accross interleaves
Interleave, duration : 42 ms (1.00 video frame)
Interleave, preload duration : 500 ms

Скриншоты

-
[Профиль] [ЛС]

Создавать темы 12-Июн-2016 07:53 (спустя 2 месяца 15 дней)

Топик был перенесен из форума Фильмы 2011 года в форум Фильмы 2010 года
Russian Mafia
 
Показать сообщения:    

Текущее время: Сегодня 02:11

Часовой пояс: GMT



Вы не можете начинать темы
Вы не можете отвечать на сообщения
Вы не можете редактировать свои сообщения
Вы не можете удалять свои сообщения
Вы не можете голосовать в опросах
Вы не можете прикреплять файлы к сообщениям
Вы не можете скачивать файлы