Нева и Надежда. Первое русское плавание кругом света [2013, Документальный, HDTV 1080i] [Россия HD]

 
Автор Сообщение

TorrentFilm ®

Пол:

Стаж: 2 года

Сообщений: 7741



Награды: Нет

Торрент-статистика

Создавать темы 27-Янв-2015 00:00

[Цитировать]

Нева и Надежда. Первое русское плавание кругом света
Год выпуска: 2013
Страна: Россия
Жанр: Документальный
Продолжительность: 00:44:00 серия
Перевод: Не требуется
Описание: История Первого российского кругосветного плавания.
Великие эпохи измеряются масштабом деяний их главных героев, мудростью властителей дум и бесстрашием первооткрывателей. Именно таким и было начало 19 века в России. Выдержавшая суровые испытания отчизна устремила взор к своим крайним восточным пределам и отправила к этим туманным рубежам экспедиции мореходов.
Самой выдающейся из них стало предприятие выпускников морского кадетского корпуса – Ивана Федоровича Крузенштерна (1770—1846) и Юрия Федоровича Лисянского (1803-1806). Оба они принимали участие в сражениях против шведов, плавали в английских экипажах к берегам Канады, помогая союзникам в борьбе с наполеоновским флотом. Теперь им предстояло совершить неизмеримо большее, миссию небывалую по сложности поставленных задач - политических, дипломатических и научных. Никогда прежде подобного не совершали русские мореходы.
История экспедиции - блистательный пример взаимодействия государства, предпринимателей, военных моряков и ученых-исследователей, объединенных идеей процветания и развития Родины. Даже сегодня их наблюдения и открытия сохраняют научный интерес. С экспедиции Крузенштерна и Лисянского начинается эпоха русских экспедиций. По числу исследовательских плаваний в первой половине XIX века с Россией не могли сравниться ни Англия, ни Франция.
Личности героев, лирическая линия, исторический контекст, драматизм отношений - по на­калу страстей экспедиция дает бесценный материал для реконструкции.
Это первая попытка рассказать средствами телевидения историю похода. Съемки фильма проходили в местах, свя­занных с экспедицией, и большинство из них впервые увидит российский зритель. Это 16 географических точек – от Аляски до мыса Горн. Зритель получит наглядную возмож­ность оценить масштабность свершения русских морехо­дов. Съемки проходили и на парусном судне "Крузенштерн". Приборы, предметы быта, морские традиции, - каждый сможет представить себя в роли участника похода, ощутить тя­готы, которые выпали на их долю.
Впервые будут показаны гравюры, сделанные членами экспедиции и ожившие с помощью компьютерной графики. Некоторые сцены сняты в специально построенных павильонах и стилизованы под кинофильм начала ХХ века. Впервые прозвучат и дневники участников плавания: их в фильме читают ровесники героев - известные актеры.
Повествование о путешествии не ограничивается рамками жанра исторического фильма. Описание плавания перемежается рассказом о сегодняшнем дне важнейших пунктов остановки экспедиции.
Тип релиза: HDTV 1080i
Контейнер: TS
Видео: H264; 1920x1080 (16:9); 25.000 fps; ~7 575 Kbps
Аудио: MPEG Audio 48000Hz stereo 192 Кбит/сек

MediaInfo

GeneralID : 1 (0x1)Complete name : Q:\2014-2015 НОВОГОДНИЕ\Нева и Надежда. Первое русское плавание кругом света\01. Нева и Надежда. Первое русское плавание кругом света.tsFormat : MPEG-TSFile size : 2.51 GiBDuration : 44mn 3sOverall bit rate mode : VariableOverall bit rate : 8 173 Kbps
VideoID : 2292 (0x8F4)Menu ID : 1 (0x1)Format : AVCFormat/Info : Advanced Video CodecFormat profile : High@L4.0Format settings, CABAC : YesFormat settings, ReFrames : 4 framesCodec ID : 27Duration : 44mn 3sBit rate : 7 575 KbpsWidth : 1 920 pixelsHeight : 1 080 pixelsDisplay aspect ratio : 16:9Frame rate : 25.000 fpsColor space : YUVChroma subsampling : 4:2:0Bit depth : 8 bitsScan type : MBAFFBits/(Pixel*Frame) : 0.146Stream size : 2.33 GiB (93%)
AudioID : 2295 (0x8F7)Menu ID : 1 (0x1)Format : MPEG AudioFormat version : Version 1Format profile : Layer 2Codec ID : 3Duration : 44mn 3sBit rate mode : ConstantBit rate : 192 KbpsChannel(s) : 2 channelsSampling rate : 48.0 KHzCompression mode : LossyStream size : 60.5 MiB (2%)Language : English

Скриншоты


[Профиль] [ЛС]
Кто просматривает тему:

Показать сообщения:    

Текущее время: Сегодня 16:54

Часовой пояс: GMT



Вы не можете начинать темы
Вы не можете отвечать на сообщения
Вы не можете редактировать свои сообщения
Вы не можете удалять свои сообщения
Вы не можете голосовать в опросах
Вы не можете прикреплять файлы к сообщениям
Вы не можете скачивать файлы