Небольшое привидение / Mostly Ghostly (Ричард Коррелл / Richard Correll) [2008, США, фэнтези, семейный, WEB-DLRip] DVO

 
Автор Сообщение

TorrentFilm ®

Пол:

Стаж: 2 года

Сообщений: 7741



Награды: Нет

Торрент-статистика

Создавать темы 19-Сен-2015 00:09

[Цитировать]

Небольшое привидение / Mostly Ghostly
Страна: США
Жанр: фэнтези, семейный
Год выпуска: 2008
Продолжительность: 01:37:35
Перевод: Профессиональный (двухголосый закадровый)
Cубтитры: нет
Оригинальная аудиодорожка: нет
Режиссер: Ричард Коррелл / Richard Correll
В ролях: Мэдисон Петтис, Стерлинг Бомон, Люк Бенвард, Брайан Степанек, Дэвид ДеЛуис, Ким Родс, Адам Хикс, Али Лохан, Сабрина Брайан, Рэйчел Уинфри
Описание: Родители Макса очень выгодно купили небольшой домик и вот, вся семья переезжает на новое место. Макс большой любитель фокусов и он готовит номер для выступления в школе на Хэллоуин. Однажды пёсик Макса находит на заднем дворе обрывок бумаги с непонятным заклинанием. Оказывается, что в подвале дома находится тоннель в параллельный мир со всякой нечистью, в котором и сгинули бывшие хозяева дома. Нечисть собирается выйти наружу и только Макс сможет спасти наш светлый Мир от потустороннего зла и закрыть тоннель…
Доп. информация: За русскую дорожку спасибо 25k.

Sample
Качество видео: WEB-DLRip
Формат видео: AVI
Видео: 720x400 (1.80:1), 23.976 fps, XviD build 50 ~1954 kbps avg, 0.28 bit/pixel
Аудио: 48 kHz, AC3 Dolby Digital, 2/0 (L,R) ch, ~192 kbps

MediaInfo

General
Complete name : E:\1\Mostly Ghostly 2008.avi
Format : AVI
Format/Info : Audio Video Interleave
File size : 1.47 GiB
Duration : 1h 37mn
Overall bit rate : 2 156 Kbps
Writing application : VirtualDubMod 1.5.10.3 | www.virtualdub-fr.org || (build 2550/release)
Writing library : VirtualDubMod build 2550/release
Video
ID : 0
Format : MPEG-4 Visual
Format profile : Advanced Simple@L5
Format settings, BVOP : 2
Format settings, QPel : No
Format settings, GMC : No warppoints
Format settings, Matrix : Default (H.263)
Codec ID : XVID
Codec ID/Hint : XviD
Duration : 1h 37mn
Bit rate : 1 955 Kbps
Width : 720 pixels
Height : 400 pixels
Display aspect ratio : 16:9
Frame rate : 23.976 fps
Color space : YUV
Chroma subsampling : 4:2:0
Bit depth : 8 bits
Scan type : Progressive
Compression mode : Lossy
Bits/(Pixel*Frame) : 0.283
Stream size : 1.33 GiB (91%)
Writing library : XviD 1.2.1 (UTC 2008-12-04)
Audio
ID : 1
Format : AC-3
Format/Info : Audio Coding 3
Mode extension : CM (complete main)
Format settings, Endianness : Big
Codec ID : 2000
Duration : 1h 37mn
Bit rate mode : Constant
Bit rate : 192 Kbps
Channel count : 2 channels
Channel positions : Front: L R
Sampling rate : 48.0 KHz
Bit depth : 16 bits
Compression mode : Lossy
Stream size : 134 MiB (9%)
Alignment : Split accross interleaves
Interleave, duration : 42 ms (1.00 video frame)
Interleave, preload duration : 500 ms

Скриншоты

[Профиль] [ЛС]

Создавать темы 12-Июн-2016 08:50 (спустя 8 месяцев 23 дня)

Топик был перенесен из форума Фильмы 2011 года в форум Фильмы 2006-2008 года
Russian Mafia
 
Кто просматривает тему:

Форум Тема Автор Размер
Фильмы (HD Rips | 720p, 1080p) Как организовать оргию в небольшом городке / How to Plan an Orgy in a Small Town (2015) WEB-DL 1080p | L BOSS 4.15 GB
Фильмы (HD Rips | 720p, 1080p) Как организовать оргию в небольшом городке / How to Plan an Orgy in a Small Town (2015) WEB-DL 720p | L достали все 3.34 GB
Фильмы 2015 года Как организовать оргию в небольшом городке / How to Plan an Orgy in a Small Town (2015) WEB-DLRip | L достали все 1.37 GB
Фильмы 2016 года Небольшое ДТП / Fender.Bender (2016) WEB-DLRip | L1 BOSS 1.44 GB
Фильмы 2014 года Небольшое привидение: Вы знакомы с моим другом вурдалаком? / Mostly Ghostly: Have You Met My Ghoulfriend? (2014) HDRip | Чистый звук Russian Mafia 1.37 GB
Фильмы (HD Rips | 720p, 1080p) Небольшое привидение: Одна ночь в проклятом доме / Mostly Ghostly 3: One Night in Doom House (2016) WEB-DL 720p | iTunes Russian Mafia 2.85 GB
Фильмы 2016 года Небольшое привидение: Одна ночь в проклятом доме / Mostly Ghostly 3: One Night in Doom House (2016) WEB-DLRip | iTunes Russian Mafia 1.37 GB
Зарубежные Чего боятся мужчины, или секс в небольшом городе / Czego sie boja faceci, czyli seks w mniejszym miescie [s01] (2003) SATRip | P Белочка 3.91 GB
Показать сообщения:    

Текущее время: Сегодня 10:51

Часовой пояс: GMT



Вы не можете начинать темы
Вы не можете отвечать на сообщения
Вы не можете редактировать свои сообщения
Вы не можете удалять свои сообщения
Вы не можете голосовать в опросах
Вы не можете прикреплять файлы к сообщениям
Вы не можете скачивать файлы