Небесный тихоход (Семен Тимошенко) [1945, СССР, комедия, военный, BDRip 720p]

 
Автор Сообщение

TorrentFilm ®

Пол:

Стаж: 2 года

Сообщений: 7741



Награды: Нет

Торрент-статистика

Создавать темы 02-Янв-2016 00:00

[Цитировать]

Небесный тихоход- Год выпуска: 1945
Страна: СССР-Жанры: комедия, военный
Продолжительность: 01:23:22-Cубтитры: русские (с DVD от "С. Орлова")
Навигация по главам: есть-Режиссер: Семен Тимошенко
Сценарий: Семен Тимошенко-В ролях: Николай Крючков (майор Булочкин), Василий Меркурьев (ст. лейтенант Туча), Василий Нещипленко (капитан Кайсаров), Алла Парфаньяк (корреспондент Валя), Людмила Глазова (ст. лейтенант Кутузова), Тамара Алешина (ст. лейтенант Светлова), Яков Гудкин (в титрах не указан), Фаина Раневская (в титрах не указан), Константин Скоробогатов (в титрах не указан), Семен Тимошенко (в титрах не указан)-Описание: Три друга, летчики-офицеры, поклялись не любить до конца войны. Однако военная служба познакомила из с летчицами женской эскадрильи. И друзья один за другим начали сдавать свои позиции.
После тяжелого ранения летчик Булочкин вынужден летать не на скоростном истребителе, а на «тихоходе» У-2. Привыкший к опасностям Булочкин с трудом привыкает к спокойной жизни в эскадрилье, где большинство летчиков - девушки. Но вскоре становится ясно, что на войне важны и «тихоходы».-Доп. информация: Полная реставрация изображения и звука. Исходные киноматериалы подготовлены Госфильмофондом России. Покадровая цифровая реставрация изображения, ремастеринг звука и авторинг проведены объединением «Крупный план».-Релиз от - -Качество: BDRip (arkahan)
Формат: MKV
Видео кодек: AVC
Аудио кодек: DTS, AC3
Видео: ~ 5 710 Kbps, 956x720, 23.976 fps
Аудио 2: Russian - DTS, ~1 536 Kbps, 48KHz, 6ch
Аудио 1: Russian - AC3, ~192 Kbps, 48KHz, 1ch

Знаете ли вы, что...

• В сценах празднования встречи лётчиков и лётчиц снимались артисты танцевального коллектива под руководством Аркадия Обранта. Он возник незадолго до войны в Ленинградском Дворце пионеров, был воссоздан в годы войны, провёл около трех тысяч выступлений в воинских частях и в осаждённом Ленинграде.
• В самом начале картины можно увидеть разрушенный Большой дворец Петергофа — так он выглядел в 1945 году до начала всех восстановительных работ.
• Фильм восстановлен на киностудии «Ленфильм» в 1970 году.
• После съемок Крючков развелся со своей первой женой, и женился на актрисе Алле Парфаньяк, исполнявшей главную роль. С ней он прожил 10 лет.

Подробные тех. данные

General
Unique ID : 184121480896648567737142954265371651591 (0x8A8481E173C45871A1CDBDB821DEAE07)
Complete name : D:\Фильмы\Наши\Nebesnyy.Tikhokhod.1945.BDRip.720p.aRKa.mkv
Format : Matroska
Format version : Version 2
File size : 4.32 GiB
Duration : 1h 23mn
Overall bit rate : 7 413 Kbps
Movie name : Nebesnyy.Tikhokhod.1945.BDRip.720p.aRKa for RuTracker.org
Encoded date : UTC 2011-06-03 19:23:35
Writing application : mkvmerge v4.6.0 ('Still Crazy After All These Years') сборка от Mar 10 2011 02:50:32
Writing library : libebml v1.2.0 + libmatroska v1.1.0
Video
ID : 1
Format : AVC
Format/Info : Advanced Video Codec
Format profile : High@L4.1
Format settings, CABAC : Yes
Format settings, ReFrames : 8 frames
Codec ID : V_MPEG4/ISO/AVC
Duration : 1h 23mn
Bit rate : 5 563 Kbps
Width : 956 pixels
Height : 720 pixels
Display aspect ratio : 4:3
Frame rate : 23.976 fps
Color space : YUV
Chroma subsampling : 4:2:0
Bit depth : 8 bits
Scan type : Progressive
Bits/(Pixel*Frame) : 0.337
Stream size : 3.24 GiB (75%)
Title : Nebesnyy.Tikhokhod.1945.BDRip.720p.aRKa
Writing library : x264 core 115 r1947kMod b5a8ad7
Encoding settings : cabac=1 / ref=8 / deblock=1:-3:-3 / analyse=0x3:0x133 / me=umh / subme=10 / psy=1 / fade_compensate=0.00 / psy_rd=1.00:0.05 / mixed_ref=1 / me_range=32 / chroma_me=1 / trellis=2 / 8x8dct=1 / cqm=0 / deadzone=21,11 / fast_pskip=1 / chroma_qp_offset=-2 / threads=3 / sliced_threads=0 / nr=0 / decimate=1 / interlaced=0 / bluray_compat=0 / constrained_intra=0 / bframes=7 / b_pyramid=2 / b_adapt=2 / b_bias=0 / direct=1 / weightb=1 / open_gop=0 / weightp=2 / keyint=250 / keyint_min=23 / scenecut=40 / intra_refresh=0 / rc_lookahead=40 / rc=crf / mbtree=0 / crf=16.5000 / qcomp=0.60 / qpmin=0 / qpmax=69 / qpstep=4 / vbv_maxrate=50000 / vbv_bufsize=62500 / crf_max=0.0 / nal_hrd=none / ip_ratio=1.40 / pb_ratio=1.30 / aq=1:0.90
Language : Russian
Matrix coefficients : BT.709-5, BT.1361, IEC 61966-2-4 709, SMPTE RP177
Audio #1
ID : 2
Format : DTS
Format/Info : Digital Theater Systems
Codec ID : A_DTS
Duration : 1h 23mn
Bit rate mode : Constant
Bit rate : 1 510 Kbps
Channel(s) : 6 channels
Channel positions : Front: L C R, Side: L R, LFE
Sampling rate : 48.0 KHz
Bit depth : 24 bits
Compression mode : Lossy
Stream size : 900 MiB (20%)
Title : DTS 5.1 24 bit 1510kbps (Blu-ray DTS-HD MA core)
Language : Russian
Audio #2
ID : 3
Format : AC-3
Format/Info : Audio Coding 3
Mode extension : CM (complete main)
Codec ID : A_AC3
Duration : 1h 23mn
Bit rate mode : Constant
Bit rate : 192 Kbps
Channel(s) : 1 channel
Channel positions : Front: C
Sampling rate : 48.0 KHz
Bit depth : 16 bits
Compression mode : Lossy
Stream size : 115 MiB (3%)
Title : AC3 1.0 Blu-ray
Language : Russian
Text
ID : 4
Format : UTF-8
Codec ID : S_TEXT/UTF8
Codec ID/Info : UTF-8 Plain Text
Title : from Orlov`s DVD
Language : Russian
Menu
00:00:00.000 : ru:Увертюра
00:03:09.064 : ru:«Первым делом самолёты»
00:07:13.475 : ru:В военном госпитале
00:14:06.721 : ru:Ангелы, а не лётчики
00:20:05.913 : ru:Боевое задание
00:26:50.067 : ru:В женской дивизии
00:32:32.367 : ru:«Пора в путь дорогу»
00:39:15.436 : ru:Валя корреспондент
00:44:26.372 : ru:Интервью старшего лейтенанта Тучи
00:48:22.483 : ru:"Удвас"
00:55:04.134 : ru:В районе минных полей
01:01:29.185 : ru:Никогда не любите лётчика
01:14:38.599 : ru:Секретное орудие
01:18:38.881 : ru:Награждение/финал

Скриншоты

[Профиль] [ЛС]
Показать сообщения:    

Текущее время: Сегодня 06:24

Часовой пояс: GMT



Вы не можете начинать темы
Вы не можете отвечать на сообщения
Вы не можете редактировать свои сообщения
Вы не можете удалять свои сообщения
Вы не можете голосовать в опросах
Вы не можете прикреплять файлы к сообщениям
Вы не можете скачивать файлы