Небезопасно для работы / Not Safe for Work (Джо Джонстон / Joe Johnston) [2014 г., США, триллер, BDRip] Dub

 
Автор Сообщение

Создавать темы 14-Июл-2014 09:08

Небезопасно для работыNot Safe for Work-- Год выпуска: 2014
Страна: США-Жанр: триллер
Продолжительность: 01:14:11
Перевод: Профессиональный (полное дублирование)
Субтитры: нет-Режиссер: Джо Джонстон / Joe Johnston
Сценарий: Саймон Бойес / Simon Boyes, Адам Мэйсон / Adam Mason
Продюсер: Джейсон Блум / Jason Blum, Жанетт Брилл / Jeanette Brill, Брайан Брукс / Bryan Brucks, Джоэль Садилек / Joel Sadilek, Купер Самуэльсон / Couper Samuelson
Оператор: Джонатан Тейлор / Jonathan Taylor
Композитор: Тайлер Бейтс / Tyler Bates-В ролях: Джей Джей Филд (Tom), Элоиза Мамфорд (Anna), Макс Мингелла, Молли Хэйгэн (Janine), Майкл Глэдис (John Ferguson), Кристиан Клименсон (Alan Emmerich), Брэндон Кинер (Moyers), Тим Гриффин (The Accomplice), Марина Блэк (Lorraine), Эме Иквуакор, Том Гэллоп (Roger), Шэшони Холл (Actor)-Описание: Обычный офисный работник Том Миллер вынужден вступить в смертельное противостояние с безумным убийцей, оказавшимся в одном с ним здании. Том всеми силами пытается защитить работающих допоздна сотрудников своей юридической фирмы, которые не подозревают о нависшей над ними угрозой, однако вскоре выясняет, что его коллеги скрывают ужасную тайну, из-за которой тысячи жизней подвергаются опасности.-kinopoisk.ru: 5.745 (210)
imdb.com: 5.90 (438)-Качество: BDRip / Blu-ray
Контейнер: AVI
Видео: 688x368 (1.87:1), 23.976 fps, XviD build 65 ~1262 kbps avg, 0.21 bit/pixel
Аудио: 48 kHz, MPEG Layer 3, 2 ch, ~128.00 kbps avg-

MediaInfo

General
Complete name                            : E:\Рипы\Not.Safe.for.Work.2014.BDRip.Dub.All.Films.avi
Format                                   : AVI
Format/Info                              : Audio Video Interleave
File size                                : 743 MiB
Duration                                 : 1h 14mn
Overall bit rate                         : 1 400 Kbps
Movie name                               : Not.Safe.for.Work.2014.BDRip.Dub.All.Films
Director                                 : DIABLO93
Genre                                    : Thriller
Writing application                      : VirtualDubMod 1.5.10.3 | www.virtualdub-fr.org || (build 2550/release)
Original source form/Name                : Movie
Copyright                                : Rutracker.org (R.G. All Films)
Video
ID                                       : 0
Format                                   : MPEG-4 Visual
Format profile                           : Advanced Simple@L5
Format settings, BVOP                    : 2
Format settings, QPel                    : No
Format settings, GMC                     : No warppoints
Format settings, Matrix                  : Custom
Codec ID                                 : XVID
Codec ID/Hint                            : XviD
Duration                                 : 1h 14mn
Bit rate                                 : 1 263 Kbps
Width                                    : 688 pixels
Height                                   : 368 pixels
Display aspect ratio                     : 1.85:1
Frame rate                               : 23.976 fps
Color space                              : YUV
Chroma subsampling                       : 4:2:0
Bit depth                                : 8 bits
Scan type                                : Progressive
Compression mode                         : Lossy
Bits/(Pixel*Frame)                       : 0.208
Stream size                              : 670 MiB (90%)
Writing library                          : XviD 65
Audio
ID                                       : 1
Format                                   : MPEG Audio
Format version                           : Version 1
Format profile                           : Layer 3
Mode                                     : Joint stereo
Mode extension                           : MS Stereo
Codec ID                                 : 55
Codec ID/Hint                            : MP3
Duration                                 : 1h 14mn
Bit rate mode                            : Constant
Bit rate                                 : 128 Kbps
Channel(s)                               : 2 channels
Sampling rate                            : 48.0 KHz
Compression mode                         : Lossy
Stream size                              : 67.9 MiB (9%)
Alignment                                : Aligned on interleaves
Interleave, duration                     : 42 ms (1.00 video frame)
Interleave, preload duration             : 504 ms

-

Сэмпл[url=http://multi-up.com/976484][color=indigo][font="Georgia

Скачать[/url]Скриншоты"]
Релиз группы:
-
 
Показать сообщения:    

Текущее время: Сегодня 12:11

Часовой пояс: GMT



Вы не можете начинать темы
Вы не можете отвечать на сообщения
Вы не можете редактировать свои сообщения
Вы не можете удалять свои сообщения
Вы не можете голосовать в опросах
Вы не можете прикреплять файлы к сообщениям
Вы не можете скачивать файлы