Наёмник: Отпущение грехов / Absolution (Киони Ваксман / Keoni Waxman) [2015, США, Румыния, Боевик, Триллер, Криминал, Приключения, HDRip] VO

 
Автор Сообщение

TorrentFilm ®

Пол:

Стаж: 2 года

Сообщений: 7741



Награды: Нет

Торрент-статистика

Создавать темы 09-Июл-2015 00:07

[Цитировать]

Наёмник: Отпущение грехов
Absolution
-Год выпуска: 2015
Страна: США, Румыния
Жанр: Боевик, Триллер, Криминал, Приключения
Продолжительность: 01:31:27
Перевод: Одноголосый закадровый [Хихикающий доктор по переводу Enigma]
Субтитры: нет
Оригинальная аудиодорожка: нет-Режиссер: Киони Ваксман-В ролях: Стивен Сигал, Байрон Манн, Ховард Делл, Адина Стетцу, Винни Джонс, Джош Барнетт, Мария Бата, Серджиу Костаке, Джордж Ремис-Описание: Когда на пути наёмного убийцы попадается девушка, убегающая от рук опасного босса мафии с мощными политическими связями и управляющий бизнесом по торговле людьми, он разрывается между её защитой и верностью государству, которое его наняло.- -Семпл: http://multi-up.com/1057276-Качество видео: HDRip
Формат видео: AVI
Видео: 720x400 (1.80:1), 25 fps, XviD build 73 ~1812 kbps avg, 0.25 bit/pixel
Аудио: 48 kHz, AC3 Dolby Digital, 3/2 (L,C,R,l,r) + LFE ch, ~448 kbps-

MediaInfo

General
Complete name : Mercenary.Absolution.2015.xixidok.HDRip.1400.ExKinoRay.avi
Format : AVI
Format/Info : Audio Video Interleave
File size : 1.45 GiB
Duration : 1h 31mn
Overall bit rate : 2 270 Kbps
Writing application : VirtualDubMod 1.5.10.2 (build 2540/release)
Writing library : VirtualDubMod build 2540/release
Copyright : ExKinoRay
Video
ID : 0
Format : MPEG-4 Visual
Format profile : Advanced Simple@L5
Format settings, BVOP : 1
Format settings, QPel : No
Format settings, GMC : No warppoints
Format settings, Matrix : Custom
Codec ID : XVID
Codec ID/Hint : XviD
Duration : 1h 31mn
Bit rate : 1 813 Kbps
Width : 720 pixels
Height : 400 pixels
Display aspect ratio : 16:9
Frame rate : 25.000 fps
Color space : YUV
Chroma subsampling : 4:2:0
Bit depth : 8 bits
Scan type : Progressive
Compression mode : Lossy
Bits/(Pixel*Frame) : 0.252
Stream size : 1.16 GiB (80%)
Writing library : XviD 73
Audio
ID : 1
Format : AC-3
Format/Info : Audio Coding 3
Mode extension : CM (complete main)
Format settings, Endianness : Big
Codec ID : 2000
Duration : 1h 31mn
Bit rate mode : Constant
Bit rate : 448 Kbps
Channel(s) : 6 channels
Channel positions : Front: L C R, Side: L R, LFE
Sampling rate : 48.0 KHz
Bit depth : 16 bits
Compression mode : Lossy
Stream size : 293 MiB (20%)
Alignment : Split accross interleaves
Interleave, duration : 40 ms (1.00 video frame)
Interleave, preload duration : 500 ms
Title : xixidok

Скриншоты



-
[Профиль] [ЛС]
Кто просматривает тему:

Форум Тема Автор Размер
Фантастика, фэнтези Анастасия Левковская | Талант быть наемником (2015) [FB2] достали все 1 MB
Фильмы (HD Rips | 720p, 1080p) Дневник наёмного убийцы / Diary of a Hitman (Рой Лондон / Roy London) [1991, США, триллер, драма, криминал, HDTV 1080i] DVO (НТВ+) + AVO (А. Гаврилов) + AVO (С. Визгунов) + Sub Eng + Original Eng bot 3.65 GB
Зарубежные сериалы Наемник Куорри / Quarry (Сезон 1, Серия 1-4 из 8 ) (Грег Яйтанс, Джон Хиллкоут) [2016, Криминальная драма , HDTVRip 1080p ] [MVO] [AlexFilm , NewStudiо ,BaibaK o,Kubik V Kube , English + Subs ENG] Враг Нароода 16.93 GB
Фильмы 2015 года Наёмник: Отпущение грехов / Absolution (2015) HDRip от ExKinoRay | L1 достали все 748 MB
Discovery Наемники (3 серии из 5) / Mercenaries (Бен Андерсон/Ben Anderson) [2013, Документальный, DVB] reversefile 1.54 GB
Фильмы (HD Rips | 720p, 1080p) Наемницы / Mercenaries (2014) BDRip 720p | L2 sergej644 3.78 GB
Фильмы 2014 года Наемницы / Mercenaries (2014) HDRip | L2 sergej644 699 MB
Фильмы 2014 года Наёмные убийцы / Contract killers (2014) HDRip | L1 достали все 1.45 GB
Показать сообщения:    

Текущее время: Сегодня 14:44

Часовой пояс: GMT



Вы не можете начинать темы
Вы не можете отвечать на сообщения
Вы не можете редактировать свои сообщения
Вы не можете удалять свои сообщения
Вы не можете голосовать в опросах
Вы не можете прикреплять файлы к сообщениям
Вы не можете скачивать файлы