На юг, на юг (Юрий Бутырин) [1974, Союзмультфильм, рисованная анимация, для взрослых, TeleSynch]

 
Автор Сообщение

TorrentFilm ®

Пол:

Стаж: 2 года

Сообщений: 7741



Награды: Нет

Торрент-статистика

Создавать темы 03-Янв-2016 00:05

[Цитировать]

На юг, на юг
Страна: СССР
Жанр: рисованная анимация/для взрослых
Продолжительность: 00:04:59
Год выпуска: 1974
Режиссёр: Юрий Бутырин
Описание: Мультипликационный фильм, о правилах дорожного движения, о том, что занавески на заднем стекле машин, игрушки, сувениры на лобовом стекле, ограничивая видимость, могут стать причиной аварии.
По заказу Министерства здравоохранения СССР
Доп. информация: Фильм оцифрован с киноплёнки 35-мм из личного архива ENKVANT
Качество: TeleSynch
Формат: AVI
Видео: XviD, 4:3, 720х544, 25 fps, 1388 kbps
Аудио: МР3, 48 kHz, 2 ch, 128 kbps
Субтитры: нет

Подробные технические данные

ОбщееПолное имя : На юг, на юг.aviФормат : AVIФормат/Информация : Audio Video InterleaveРазмер файла : 50,7 МбайтПродолжительность : 4 м. 59 с.Общий поток : 1422 Кбит/секПрограмма кодирования : VirtualDubMod 1.5.4.1 (build 2178/release)Библиотека кодирования : VirtualDubMod build 2178/release
ВидеоИдентификатор : 0Формат : MPEG-4 VisualПрофиль формата : Advanced Simple@L5Параметр BVOP формата : 1Параметр QPel формата : НетПараметр GMC формата : Без точки переходаПараметр матрицы формата : ВыборочнаяИдентификатор кодека : XVIDИдентификатор кодека/Подсказка : XviDПродолжительность : 4 м. 59 с.Битрейт : 1286 Кбит/секШирина : 720 пикселейВысота : 544 пикселяСоотношение сторон : 4:3Частота кадров : 25,000 кадров/секЦветовое пространство : YUVСубдискретизация насыщенности : 4:2:0Битовая глубина : 8 битТип развёртки : ПрогрессивнаяМетод сжатия : С потерямиБит/(Пиксели*Кадры) : 0.131Размер потока : 45,8 Мбайт (90%)Библиотека кодирования : XviD 1.2.1 (UTC 2008-12-04)
АудиоИдентификатор : 1Формат : MPEG AudioВерсия формата : Version 1Профиль формата : Layer 3Режим : Joint stereoИдентификатор кодека : 55Идентификатор кодека/Подсказка : MP3Продолжительность : 4 м. 59 с.Вид битрейта : ПостоянныйБитрейт : 128 Кбит/секКаналы : 2 каналаЧастота : 48,0 КГцМетод сжатия : С потерямиРазмер потока : 4,56 Мбайт (9%)Выравнивание : Соединение по промежуткамПродолжительность промежутка : 80 мс. (2,00 видеокадра)Время предзагрузки промежутка : 504 мс.Библиотека кодирования : LAME3.98rНастройки программы : -m j -V 4 -q 2 -lowpass 17 -b 128

Скриншоты

, , , ,
[Профиль] [ЛС]
Кто просматривает тему:

Показать сообщения:    

Текущее время: Сегодня 22:21

Часовой пояс: GMT



Вы не можете начинать темы
Вы не можете отвечать на сообщения
Вы не можете редактировать свои сообщения
Вы не можете удалять свои сообщения
Вы не можете голосовать в опросах
Вы не можете прикреплять файлы к сообщениям
Вы не можете скачивать файлы