На учете за преступление на сексуальной почве / На учёте за сексуальное нападение / RSO / Registered Sex Offender (Боб Байингтон / Bob Byington) [2008, США, псевдодокументальная комедия, DVB-AVC] MVO (Kino Polska) + Original (Eng)

 
Автор Сообщение

TorrentFilm ®

Пол:

Стаж: 2 года

Сообщений: 7741



Награды: Нет

Торрент-статистика

Создавать темы 14-Июл-2015 00:10

[Цитировать]

На учете за преступление на сексуальной почве
RSO [Registered Sex Offender]- Страна: США
Жанр: псевдодокументальная комедия
Год выпуска: 2008
Продолжительность: 01:14:32Перевод: Профессиональный (многоголосый закадровый) по заказу Kino Polska на производственно-технической базе Студии "Акцент"
Cубтитры: нет
Оригинальная аудиодорожка: английский
Режиссер: Боб Байингтон / Bob Byington
В ролях: Габриель Макайвер / Gabriel McIver (RSO), Кристен Такер / Kristen Tucker (Tina), Кевин Корриган / Kevin Corrigan (Grabok), Эндрю Бужальски / Andrew Bujalski (Reggie), Ник Офферман / Nick Offerman (Simmons), Ричард Линклейтер / Richard Linklater (Principal Mallard), Дэмиэн Янг / Damian Young (Thackeridge), Боб Шнайдер / Bob Schneider (Ersatz Employer), Джимми Гонзалес / Jimmy Gonzales (Victor)
Описание: Что может быть хуже, чем выпущенный на волю после отсидки осужденный за преступление на сексуальной почве? Ответ на этот вопрос дается в псевдодокументальном фильме о судьбе одного такого правонарушителя.
Доп. информация: Filmbox Arthouse IPTV
Участник SXSW Film Festival 2008; San Francisco Independent Film Festival 2009; Boston Underground Film Festival 2009.

Качество видео: DVB-AVC
Формат видео: MKV
Видео: AVC (H.264), 720x576@1024x576 (16:9), 25 fps, ~1291 kbps avg, 0.125 bit/pixel
Аудио 1: MPEG Audio 2, 2 ch, 48 kHz, ~128.00 kbps avg - русский
Аудио 2: MPEG Audio 2, 2 ch, 48 kHz, ~128.00 kbps avg - английский

MediaInfo

ОбщееУникальный идентификатор : 246693855680820600970518862887244204156 (0xB9978224E099640A8030DB43BD3B087C)Полное имя : F:\My Torrents 3\[apreder]RSO(2008).mkvФормат : MatroskaВерсия формата : Version 2Размер файла : 842 МбайтПродолжительность : 1 ч. 14 м.Общий поток : 1578 Кбит/секДата кодирования : UTC 2015-07-11 10:36:58Программа кодирования : mkvmerge v8.1.0 ('Psychedelic Postcard') 64bitБиблиотека кодирования : libebml v1.3.1 + libmatroska v1.4.2Attachements : cover.jpg / cover_small.jpg
ВидеоИдентификатор : 3Формат : AVCФормат/Информация : Advanced Video CodecПрофиль формата : Main@L3Параметр CABAC формата : ДаПараметр ReFrames формата : 3 кадраИдентификатор кодека : V_MPEG4/ISO/AVCПродолжительность : 1 ч. 14 м.Битрейт : 1291 Кбит/секШирина : 720 пикселейВысота : 576 пикселейСоотношение сторон : 16:9Соотношение сторон в оригинале : 16:9Режим частоты кадров : ПостоянныйЧастота кадров : 25,000 кадров/секСтандарт вещания : ComponentЦветовое пространство : YUVСубдискретизация насыщенности : 4:2:0Битовая глубина : 8 битТип развёртки : ЧересстрочнаяПорядок развёртки : Верхнее поле первоеБит/(Пиксели*Кадры) : 0.125Размер потока : 688 Мбайт (82%)Default : ДаForced : Нетcolour_range : LimitedОсновные цвета : BT.601 PALХарактеристики трансфера : BT.470 System B, BT.470 System GКоэффициенты матрицы : BT.601
Аудио #1Идентификатор : 1Формат : MPEG AudioВерсия формата : Version 1Профиль формата : Layer 2Идентификатор кодека : A_MPEG/L2Идентификатор кодека/Подсказка : MP2Продолжительность : 1 ч. 14 м.Вид битрейта : ПостоянныйБитрейт : 128 Кбит/секКаналы : 2 каналаЧастота : 48,0 КГцМетод сжатия : С потерямиРазмер потока : 68,2 Мбайт (8%)Язык : RussianDefault : ДаForced : Нет
Аудио #2Идентификатор : 2Формат : MPEG AudioВерсия формата : Version 1Профиль формата : Layer 2Идентификатор кодека : A_MPEG/L2Идентификатор кодека/Подсказка : MP2Продолжительность : 1 ч. 14 м.Вид битрейта : ПостоянныйБитрейт : 128 Кбит/секКаналы : 2 каналаЧастота : 48,0 КГцМетод сжатия : С потерямиРазмер потока : 68,2 Мбайт (8%)Язык : EnglishDefault : НетForced : Нет

Скриншот c названием фильма

Скриншоты


Резервные скриншоты


-[2'452]
[Профиль] [ЛС]

Создавать темы 06-Авг-2015 22:23 (спустя 23 дня)

Топик был перенесен из форума Фильмы до 2014 года в форум Фильмы до 2012 года
sergej644
 

Создавать темы 12-Июн-2016 08:52 (спустя 10 месяцев 29 дней)

Топик был перенесен из форума Фильмы 2011 года в форум Фильмы 2006-2008 года
Russian Mafia
 
Кто просматривает тему:

Показать сообщения:    

Текущее время: Сегодня 13:50

Часовой пояс: GMT



Вы не можете начинать темы
Вы не можете отвечать на сообщения
Вы не можете редактировать свои сообщения
Вы не можете удалять свои сообщения
Вы не можете голосовать в опросах
Вы не можете прикреплять файлы к сообщениям
Вы не можете скачивать файлы