На море (Гиви Касрадзе) [1976, Грузия-фильм, кукольная анимация, TeleSynch]

 
Автор Сообщение

TorrentFilm ®

Пол:

Стаж: 2 года

Сообщений: 7741



Награды: Нет

Торрент-статистика

Создавать темы 03-Янв-2016 00:05

[Цитировать]

На море
Страна: СССР
Жанр: кукольная анимация
Продолжительность: 00:05:55
Год выпуска: 1976
Русские субтитры: нет
Режиссёр: Гиви Касрадзе
Описание: Мальчик плыл на лодке по морю. Вдруг он выловил бутылку, в которой обнаружил сигнал о помощи. Мальчик тут-же бросился на выручку. Но выяснилось, что его обманули пираты, чтобы обманом заманить на свой корабль. Но мальчик не растерялся, и легко расправился с пиратами
Доп. информация: Фильм оцифрован с киноплёнки 16-мм из личной коллекции. Качество изображения очень низкое, так как плёнка сильно повреждена, но другой версии этого мультфильма я в сети не обнаружил.
Качество: TeleSynch
Формат: AVI
Видео: XviD, 4:3, 720х544, 25 fps, 1606 kbps
Аудио: МР-3, 48 кHz, 128 kbps, 2 ch (моно)
Субтитры: отсутствуют

Подробные технические данные

ОбщееПолное имя : G:На море.aviФормат : AVIФормат/Информация : Audio Video InterleaveРазмер файла : 69,6 МбайтПродолжительность : 5 м. 54 с.Общий поток : 1645 Кбит/секПрограмма кодирования : VirtualDubMod 1.5.4.1 (build 2178/release)Библиотека кодирования : VirtualDubMod build 2178/release
ВидеоИдентификатор : 0Формат : MPEG-4 VisualПрофиль формата : Advanced Simple@L5Параметр BVOP формата : 1Параметр QPel формата : НетПараметр GMC формата : Без точки переходаПараметр матрицы формата : ВыборочнаяИдентификатор кодека : XVIDИдентификатор кодека/Подсказка : XviDПродолжительность : 5 м. 54 с.Битрейт : 1509 Кбит/секШирина : 720 пикселейВысота : 544 пикселяСоотношение сторон : 4:3Частота кадров : 25,000 кадров/секЦветовое пространство : YUVСубдискретизация насыщенности : 4:2:0Битовая глубина : 8 битТип развёртки : ПрогрессивнаяМетод сжатия : С потерямиБит/(Пиксели*Кадры) : 0.154Размер потока : 63,8 Мбайт (92%)Библиотека кодирования : XviD 1.2.1 (UTC 2008-12-04)
АудиоИдентификатор : 1Формат : MPEG AudioВерсия формата : Version 1Профиль формата : Layer 3Режим : Joint stereoРасширение режима : MS StereoИдентификатор кодека : 55Идентификатор кодека/Подсказка : MP3Продолжительность : 5 м. 54 с.Вид битрейта : ПостоянныйБитрейт : 128 Кбит/секКаналы : 2 каналаЧастота : 48,0 КГцМетод сжатия : С потерямиРазмер потока : 5,41 Мбайт (8%)Выравнивание : Соединение по промежуткамПродолжительность промежутка : 80 мс. (2,00 видеокадра)Время предзагрузки промежутка : 504 мс.Библиотека кодирования : LAME3.98rНастройки программы : -m j -V 4 -q 2 -lowpass 17 -b 128

Скриншоты

, , , ,
[Профиль] [ЛС]
Кто просматривает тему:

Показать сообщения:    

Текущее время: Сегодня 00:35

Часовой пояс: GMT



Вы не можете начинать темы
Вы не можете отвечать на сообщения
Вы не можете редактировать свои сообщения
Вы не можете удалять свои сообщения
Вы не можете голосовать в опросах
Вы не можете прикреплять файлы к сообщениям
Вы не можете скачивать файлы