На крючке / Орлиный Глаз / Eagle Eye (Д. Дж. Карузо / D.J. Caruso) [2008, США, триллер, BDRip-AVC] Dub + AVO (А.Гаврилов) + AVO (Ю.Сербин) + Sub Rus, Ukr, Eng + Original Eng

 
Автор Сообщение

TorrentFilm ®

Пол:

Стаж: 2 года

Сообщений: 7741



Награды: Нет

Торрент-статистика

Создавать темы 21-Дек-2014 02:00

[Цитировать]

На крючке / Орлиный Глаз / Eagle Eye«Хочешь жить - делай что говорят»- Страна: США
Жанр: триллер
Год выпуска: 2008
Продолжительность: 1:57:35
Перевод: Профессиональный (дублированный)
Перевод 2: Авторский (одноголосый закадровый) А.Гаврилов Отдельно
Перевод 3: Авторский (одноголосый закадровый) Ю.Сербин Отдельно
Cубтитры: Rus (Forced, Full), Ukr, Eng
Оригинальная аудиодорожка: английский
Режиссер: Д. Дж. Карузо / D.J. Caruso
Исполнительный продюсер: Стивен Спилберг / Steven Spielberg
В ролях:
Шайа ЛаБаф / Shia LaBeouf
Мишель Монахэн / Michelle Monaghan
Билли Боб Торнтон / Billy Bob Thornton
Розарио Доусон, Майкл Чиклис, Энтони Маки, Итэн Эмбри, Энтони Азизи, Камерон Бойс, Линн Коэн-ОписаниеДжерри и Рэйчел - два незнакомца, которых свел вместе таинственный телефонный звонок от женщины, которую они никогда не видели. Управляя каждым их шагом, она ввергает Джерри и Рэйчел в череду смертельно опасных событий-Сэмпл

IMDb: 6.60 (133 596)
«Орлиный глаз» (оригинальное американское название) поставлен по рассказу Стивена Спилберга, который и должен был снимать ленту. Но режиссер занялся фильмом «Индиана Джонс и Королевство хрустального черепа» (2008) и передал штурвал Карузо, оставшись лишь исполнительным продюсером.
Качество видео: BDRip-AVC BDRemux, 1080p
Формат видео: MKV
Видео: AVC 2302 Kbps 1008 x 420 (2.400) 23.976 fps
Аудио: AC-3 384 Kbps 6 channels, 48.0 KHz Rus DUB
Аудио 2: AC-3 384 Kbps 6 channels, 48.0 KHz Eng
========= Отдельно ===========
Аудио 3: AC-3 384 Kbps 6 channels, 48.0 KHz А.Гаврилов Отдельно
Аудио 4: AC-3 384 Kbps 6 channels, 48.0 KHz Ю.Сербин Отдельно
Формат субтитров: softsub (SRT)

MediaInfo | LogLog

x264 [info]: frame I:1202 Avg QP:16.98 size: 49165
x264 [info]: frame P:40910 Avg QP:19.35 size: 23209
x264 [info]: frame B:127041 Avg QP:21.82 size: 8454
x264 [info]: consecutive B-frames: 3.7% 5.8% 11.2% 19.7% 14.2% 30.6% 5.1% 1.5% 1.7% 1.7% 1.5% 1.5% 1.8%
x264 [info]: mb I I16..4: 10.6% 72.2% 17.2%
x264 [info]: mb P I16..4: 0.8% 17.3% 2.3% P16..4: 27.7% 34.2% 9.7% 1.3% 0.1% skip: 6.5%
x264 [info]: mb B I16..4: 0.1% 1.9% 0.3% B16..8: 39.7% 19.9% 3.2% direct: 4.6% skip:30.2% L0:45.0% L1:48.0% BI: 7.1%
x264 [info]: 8x8 transform intra:82.9% inter:64.3%
x264 [info]: coded y,uvDC,uvAC intra: 89.8% 81.9% 62.4% inter: 26.2% 19.3% 4.7%
x264 [info]: i16 v,h,dc,p: 27% 19% 9% 45%
x264 [info]: i8 v,h,dc,ddl,ddr,vr,hd,vl,hu: 10% 7% 10% 10% 14% 13% 13% 11% 13%
x264 [info]: i4 v,h,dc,ddl,ddr,vr,hd,vl,hu: 31% 7% 5% 7% 11% 10% 11% 8% 10%
x264 [info]: i8c dc,h,v,p: 40% 25% 17% 18%
x264 [info]: Weighted P-Frames: Y:6.8% UV:4.8%
x264 [info]: ref P L0: 46.7% 8.7% 16.8% 7.0% 5.3% 3.9% 3.5% 2.0% 1.7% 1.4% 1.3% 1.3% 0.4% 0.0%
x264 [info]: ref B L0: 69.1% 12.8% 6.4% 3.6% 2.3% 1.9% 1.5% 1.1% 0.7% 0.4% 0.2%
x264 [info]: ref B L1: 91.6% 8.4%
x264 [info]: kb/s:2361.46
x264 [total]: encoded 169153 frames, 10.75 fps, 2361.46 kb/s, duration 4:22:15.42
Format : Matroska
Format version : Version 4 / Version 2
File size : 2.57 GiB
Duration : 1h 57mn
Overall bit rate : 3 132 Kbps
Encoded date : UTC 2014-11-30 22:18:46
Writing application : mkvmerge v6.7.0 ('Back to the Ground') 32bit built on Jan 8 2014 15:03:17
Writing library : libebml v1.3.0 + libmatroska v1.4.1
Video
ID : 1
Format : AVC
Format/Info : Advanced Video Codec
Format profile : High@L4.1
Format settings, CABAC : Yes
Format settings, ReFrames : 12 frames
Codec ID : V_MPEG4/ISO/AVC
Duration : 1h 57mn
Bit rate : 2 302 Kbps
Width : 1 008 pixels
Height : 420 pixels
Display aspect ratio : 2.40:1
Frame rate mode : Constant
Frame rate : 23.976 fps
Color space : YUV
Chroma subsampling : 4:2:0
Bit depth : 8 bits
Scan type : Progressive
Bits/(Pixel*Frame) : 0.227
Stream size : 1.89 GiB (73%)
Title : Eagle Eye [torrentfilm.net]
Writing library : x264 core 142 r2453kMod ea0ca51
Encoding settings : cabac=1 / ref=12 / deblock=1:-2:-2 / analyse=0x3:0x133 / me=umh / subme=11 / psy=1 / fade_compensate=0.00 / psy_rd=1.00:0.05 / mixed_ref=1 / me_range=32 / chroma_me=1 / trellis=2 / 8x8dct=1 / cqm=0 / deadzone=21,11 / fast_pskip=0 / chroma_qp_offset=-3 / threads=12 / lookahead_threads=3 / sliced_threads=0 / nr=0 / decimate=1 / interlaced=0 / bluray_compat=0 / constrained_intra=0 / fgo=0 / bframes=12 / b_pyramid=2 / b_adapt=2 / b_bias=0 / direct=1 / weightb=1 / open_gop=0 / weightp=2 / keyint=250 / keyint_min=23 / scenecut=40 / intra_refresh=0 / rc_lookahead=60 / rc=crf / mbtree=0 / crf=19.8000 / qcomp=0.60 / qpmin=0 / qpmax=69 / qpstep=4 / vbv_maxrate=25000 / vbv_bufsize=50000 / crf_max=0.0 / nal_hrd=none / filler=0 / ip_ratio=1.40 / pb_ratio=1.30 / aq=3:0.90
Language : English
Default : Yes
Forced : No
Audio #1
ID : 2
Format : AC-3
Format/Info : Audio Coding 3
Mode extension : CM (complete main)
Format settings, Endianness : Big
Codec ID : A_AC3
Duration : 1h 57mn
Bit rate mode : Constant
Bit rate : 384 Kbps
Channel(s) : 6 channels
Channel positions : Front: L C R, Side: L R, LFE
Sampling rate : 48.0 KHz
Bit depth : 16 bits
Compression mode : Lossy
Stream size : 323 MiB (12%)
Title : Dub CEE
Language : Russian
Default : Yes
Forced : No
Audio #2
ID : 3
Format : AC-3
Format/Info : Audio Coding 3
Mode extension : CM (complete main)
Format settings, Endianness : Big
Codec ID : A_AC3
Duration : 1h 57mn
Bit rate mode : Constant
Bit rate : 384 Kbps
Channel(s) : 6 channels
Channel positions : Front: L C R, Side: L R, LFE
Sampling rate : 48.0 KHz
Bit depth : 16 bits
Compression mode : Lossy
Stream size : 323 MiB (12%)
Title : Original
Language : English
Default : No
Forced : No
Text #1
ID : 4
Format : UTF-8
Codec ID : S_TEXT/UTF8
Codec ID/Info : UTF-8 Plain Text
Title : Forced
Language : Russian
Default : Yes
Forced : No
Text #2
ID : 5
Format : UTF-8
Codec ID : S_TEXT/UTF8
Codec ID/Info : UTF-8 Plain Text
Title : FULL
Language : Russian
Default : No
Forced : No
Text #3
ID : 6
Format : UTF-8
Codec ID : S_TEXT/UTF8
Codec ID/Info : UTF-8 Plain Text
Language : Ukrainian
Default : No
Forced : No
Text #4
ID : 7
Format : UTF-8
Codec ID : S_TEXT/UTF8
Codec ID/Info : UTF-8 Plain Text
Language : English
Default : No
Forced : No

Скриншоты | Rip vs Source

Source
Сравнение с этим релизом
[Профиль] [ЛС]

Создавать темы 06-Авг-2015 22:53 (спустя 7 месяцев 16 дней)

Топик был перенесен из форума Фильмы до 2014 года в форум Фильмы до 2012 года
sergej644
 

Создавать темы 12-Июн-2016 08:51 (спустя 1 год 5 месяцев)

Топик был перенесен из форума Фильмы 2011 года в форум Фильмы 2006-2008 года
Russian Mafia
 
Кто просматривает тему:

Показать сообщения:    

Текущее время: Сегодня 22:41

Часовой пояс: GMT



Вы не можете начинать темы
Вы не можете отвечать на сообщения
Вы не можете редактировать свои сообщения
Вы не можете удалять свои сообщения
Вы не можете голосовать в опросах
Вы не можете прикреплять файлы к сообщениям
Вы не можете скачивать файлы