На карте не значится / Uncharted (Фрэнк Нунез / Frank Nunez) [2009, США, ужасы, DVDRip] MVO

 
Автор Сообщение

TorrentFilm ®

Пол:

Стаж: 2 года

Сообщений: 7741



Награды: Нет

Торрент-статистика

Создавать темы 19-Дек-2014 02:00

[Цитировать]

На карте не значится / Uncharted
Страна: США
Жанр: Ужасы
Год выпуска: 2009
Продолжительность: 01:15:33
Перевод: Профессиональный (многоголосый, закадровый) [лицензия]
Оригинальная аудиодорожка: нет
Cубтитры: нет
Режиссер: Фрэнк Нунез / Frank Nunez
В ролях:Джон Хиллард, Эрин Хоуи, Майкл К. Лэнсинг, Деметриус Наварро, Фрэнк Нунез, Фредерик Сайнц
Описание: Группа молодых документалистов высаживаются на необитаемом острове в мексиканском заливе. Они были уверены, что их ждут незабываемые приключения и удивительные открытия. В чем-то, они были правы. Только на острове оказались не они одни...
Сэмпл
Качество: DVDRip
Контейнер: AVI
Видео: 720x400 (1.80:1), 25 fps, XviD build 63 ~1234 kbps avg, 0.17 bit/pixel
Аудио: 48 kHz, MPEG Layer 3, 2 ch, ~128.00 kbps avg

MI

General
Complete name : C:\Users\Вячеслав\Downloads\На карте не значится.avi
Format : AVI
Format/Info : Audio Video Interleave
File size : 741 MiB
Duration : 1h 15mn
Overall bit rate mode : Variable
Overall bit rate : 1 373 Kbps
Writing application : VirtualDubMod 1.5.10.2 (build 2540/release)
Writing library : VirtualDubMod build 2540/release
Video
ID : 0
Format : xvid
Codec ID : xvid
Duration : 1h 15mn
Bit rate : 1 235 Kbps
Width : 720 pixels
Height : 400 pixels
Display aspect ratio : 16:9
Frame rate : 25.000 fps
Bits/(Pixel*Frame) : 0.172
Stream size : 667 MiB (90%)
Audio
ID : 1
Format : MPEG Audio
Format version : Version 1
Format profile : Layer 3
Mode : Joint stereo
Mode extension : MS Stereo
Codec ID : 55
Codec ID/Hint : MP3
Duration : 1h 15mn
Bit rate mode : Variable
Bit rate : 128 Kbps
Channel(s) : 2 channels
Sampling rate : 48.0 KHz
Compression mode : Lossy
Stream size : 69.1 MiB (9%)
Alignment : Split accross interleaves
Interleave, duration : 40 ms (1.00 video frame)
Interleave, preload duration : 500 ms

Скриншоты

[Профиль] [ЛС]

Создавать темы 06-Авг-2015 22:54 (спустя 7 месяцев 18 дней)

Топик был перенесен из форума Фильмы до 2014 года в форум Фильмы до 2012 года
sergej644
 

Создавать темы 12-Июн-2016 08:48 (спустя 1 год 5 месяцев)

Топик был перенесен из форума Фильмы 2011 года в форум Фильмы 2009 года
Russian Mafia
 
Кто просматривает тему:

Показать сообщения:    

Текущее время: Сегодня 16:29

Часовой пояс: GMT



Вы не можете начинать темы
Вы не можете отвечать на сообщения
Вы не можете редактировать свои сообщения
Вы не можете удалять свои сообщения
Вы не можете голосовать в опросах
Вы не можете прикреплять файлы к сообщениям
Вы не можете скачивать файлы