На игре (Павел Санаев) [2009, Россия, боевик, приключения, Blu-ray>DVD9 (Custom)] Original Rus

 
Автор Сообщение

TorrentFilm ®

Пол:

Стаж: 2 года

Сообщений: 7741



Награды: Нет

Торрент-статистика

Создавать темы 01-Янв-2016 00:06

[Цитировать]

-На игре- Страна: Россия
Студия: ООО "КарОван Продакшн"
Жанр: боевик, приключения
Год выпуска: 2009
Мировая премьера: 26 ноября 2009
Российская премьера: 26 ноября 2009, «Каропрокат»
Дата выхода DVD: 10 декабря 2009, «Русское счастье»
Дата выхода Blu-Ray: 2 декабря 2010, «Русское счастье»
Продолжительность: 01:30:20
Перевод: Не требуется
Cубтитры: нет
Оригинальная аудиодорожка: русский-Режиссёр: Павел Санаев-В ролях: Сергей Чирков, Марина Петренко, Павел Прилучный, Евгений Харланов, Тихон Жизневский, Нодар Сирадзе, Алексей Бардуков, Агния Дитковските, Виктор Вержбицкий, Борис Тенин-Описание: После оглушительной победы на турнире по киберспорту команде геймеров вручают диски с только что разработанной игрой. Запустив игру, каждый из них подвергается воздействию, переводящему их игровые способности в реальные. Теперь и в жизни они лучшие бойцы, стрелки и гонщики.
Данное событие не остается незамеченным. Властные структуры путем шантажа, обмана и подкупа предлагают геймерам «работу». Но как только обман раскрывается, становится понятно, что они не герои, спасающие страну, а банальные наемные убийцы. Встает вопрос: как быть дальше? К тому же дисков у производителя еще много, и появление таких же, как они, профи — это вопрос времени.
Теперь перед геймерами стоит задача найти тираж и… либо уничтожить его, либо, создав и возглавив целую армию геймеров, диктовать свою волю… Команда разделилась. Каждый идет к своей цели.
-Доп. информация: За основу был взят этот DVD и этот Blu-ray. Релиз сделан по инструкции Mikky72, tartak, GarfieldX, germanm2000. Спасибо этим людям. Особую благодарность выражаю Bad boy 911 за то, что он помогал мне практически во всём, и мы добились успеха! Ещё одна благодарность уходит Panas, за помощь со звуковыми дорожками.
Видео кодировалось в Cinema Craft Encoder SP2 в Multi-pass CBR в 1 проход (Multi+1=2 всего (2 прохода)). "Фильм о фильме" из источника в DVD кодировался в Carbon Coder в 2 прохода. Удалены 2 "Премьеры 2010". Все предупреждения и рекламы удалены. Лишние кнопки скрыты и затёрты.
-

Бриф по изготовлению DVD

-Видео
- DGDecodeNV - Индексирование
- AviSynth 2.5 - Обработка видео
- Cinema Craft Encoder SP2 - Кодирование видео
Фильм о фильме
- Rhozet Carbon Coder - Кодирование видео-Аудио
- Eac3To - Разложение DTS-HD на моно WAVs и перетягивание звука из NTSC в PAL
- Sony Vegas Pro 10.0 - Кодирование WAVs в AC3
- DTS HD Encoder Suite - Кодирование WAVs в DTS-Меню
- MuxMan - Сборка меню
- Adobe Photoshop - Графическое редактирование меню-Мультиплексоры/Демультиплексоры
- tsMuxeR - Разложение BD на потоки
- PgcDemux - Разложение DVD на потоки
- MuxMan - Сборка потоков в DVD-Реавторинг
- DvdReMakePro - Программирование и реавторинг DVD

Скриншоты программ и настроекCinema Craft Encoder SP2

eac3to

Sony Vegas

DTS HD Encoder Suite

DvdReMake Pro

Bitrate Viewer

-Фильм о фильме-

Carbon Coder

Скрипт

LoadPlugin("C:\Program Files (x86)\AviSynth 2.5\plugins\DGDecodeNV.dll")
DGSource("D:\BD to DVD9\Temp_3\On the game track_1.dgi")
LoadPlugin("D:\BD to DVD9\Programs\autoyuy2\AutoYUY2.dll") #более медленный, но качественный инструмент конверсии цветового пространства
AutoYUY2()
#Coloryuv(analyze=true) #проверка, цветового диапазона
LoadPlugin("D:\BD to DVD9\Programs\ColorMatrix\ColorMatrix.dll")
ColorMatrix(mode="Rec.709->Rec.601", inputFR=false, clamp=0) #корректировка цветовой шкалы, если проверка показывает 16-235
AssumeFPS(25) #изменение частоты кадров под стандарт PAL 25 кадров/сек
Lanczos4Resize(720, 576) #ресайз методом Catmull-Rom spline
#AddBorders (0,0,0,0) #bbb=00

Точка перехода

-Бонусы: Видеоклип, Премьеры 2010, Фильм о фильме.-Меню: Русское / анимированное / статичное / озвученное.- -Тип релиза: DVD9 (Custom)
Контейнер: DVD-Video
Видео кодек: MPEG2
Аудио кодек: AC3 + DTS-Видео: MPEG-2, PAL 16:9 (720x576) CBR Auto Letterboxed, 25,000 кадров/сек, 8500 Кбит/сек
Аудио: Russian (Dolby AC3, 6 ch), 48,0 КГц, 448 Кбит/сек, 16 бит
Аудио 2: Russian (DTS, 6 ch), 48,0 КГц, 768 Кбит/сек, 24 бит
-

MediaInfo

Общее
Полное имя : D:\BD to DVD9\Фильмы\На игре (2009) Blu-ray to DVD9 (Custom)\VIDEO_TS\VTS_01_1.VOB
Формат : MPEG-PS
Размер файла : 1024 Мбайт
Продолжительность : 14 м.
Режим общего битрейта : Переменный
Общий поток : 9851 Кбит/сек
Видео
Идентификатор : 224 (0xE0)
Формат : MPEG Video
Версия формата : Version 2
Профиль формата : Main@Main
Параметр BVOP формата : Да
Параметр матрицы формата : Выборочная
Продолжительность : 14 м.
Вид битрейта : Переменный
Битрейт : 8500 Кбит/сек
Ширина : 720 пикселей
Высота : 576 пикселей
Соотношение сторон : 16:9
Частота кадров : 25,000 кадров/сек
Стандарт вещания : PAL
Цветовое пространство : YUV
Субдискретизация насыщенности : 4:2:0
Битовая глубина : 8 бит
Тип развёртки : Прогрессивная
Порядок развёртки : Верхнее поле первое
Метод сжатия : С потерями
Бит/(Пиксели*Кадры) : 0.820
Размер потока : 879 Мбайт (86%)
Аудио #1
Идентификатор : 189 (0xBD)-128 (0x80)
Формат : AC-3
Формат/Информация : Audio Coding 3
Расширение режима : CM (complete main)
Параметр Endianness формата : Big
Режим смешивания : DVD-Video
Продолжительность : 14 м.
Вид битрейта : Постоянный
Битрейт : 448 Кбит/сек
Каналы : 6 каналов
Расположение каналов : Front: L C R, Side: L R, LFE
Частота : 48,0 КГц
Битовая глубина : 16 бит
Метод сжатия : С потерями
Размер потока : 46,6 Мбайт (5%)
Аудио #2
Идентификатор : 189 (0xBD)-137 (0x89)
Формат : DTS
Формат/Информация : Digital Theater Systems
Режим смешивания : DVD-Video
Продолжительность : 14 м.
Вид битрейта : Постоянный
Битрейт : 755 Кбит/сек
Каналы : 6 каналов
Расположение каналов : Front: L C R, Side: L R, LFE
Частота : 48,0 КГц
Битовая глубина : 24 бит
Метод сжатия : С потерями
Размер потока : 78,4 Мбайт (8%)
Меню

DVDInfo

Title: На игре (2009) Blu-ray to DVD9 (Custom)
Size: 7.74 Gb ( 8 118 114,00 KBytes ) - DVD-9
Enabled regions: 1, 2, 3, 4, 5, 6, 7, 8
VTS_01 :
Play Length: 01:30:20
Video: PAL 16:9 (720x576) VBR, Auto Letterboxed
Audio:
Russian (Dolby AC3, 6 ch)
Russian (DTS, 6 ch)
VTS_02 :
Play Length: 00:03:31
Video: PAL 4:3 (720x576) VBR
Audio:
Russian (Dolby AC3, 2 ch)
VTS_03 :
Play Length: 00:23:47
Video: PAL 4:3 (720x576) VBR
Audio:
Russian (Dolby AC3, 2 ch)
VTS_04 :
Play Length: 00:01:34+00:00:43
Video: PAL 4:3 (720x576) VBR
Audio:
Russian (Dolby AC3, 2 ch)
* Menus Information *
VIDEO_TS Menu
Video:
PAL 4:3 (720x576) VBR
Audio:
Not specified (Dolby AC3, 2 ch)
English Language Unit :
Title Menu
VTS_01 Menu
Video:
PAL 16:9 (720x576) VBR
Auto Letterboxed
Audio:
Not specified (Dolby AC3, 2 ch)
English Language Unit :
Root Menu
Audio Menu
Chapter (PTT) Menu
VTS_02 Menu
Video:
NTSC 4:3 (720x480) VBR
Auto Pan&Scan, Auto Letterboxed
English Language Unit :
Root Menu
VTS_03 Menu
Video:
NTSC 4:3 (720x480) VBR
Auto Pan&Scan, Auto Letterboxed
English Language Unit :
Root Menu
VTS_04 Menu
Video:
PAL 4:3 (720x576) VBR
Audio:
Not specified (Dolby AC3, 2 ch)
English Language Unit :
Root Menu

Скриншоты меню

Скриншоты

Скриншоты доп. материаловВидеоклип

Премьеры 2010Правосудие волков

Белая медведица

Фильм о фильме

Обложки

[Профиль] [ЛС]
Кто просматривает тему:

Показать сообщения:    

Текущее время: Сегодня 01:25

Часовой пояс: GMT



Вы не можете начинать темы
Вы не можете отвечать на сообщения
Вы не можете редактировать свои сообщения
Вы не можете удалять свои сообщения
Вы не можете голосовать в опросах
Вы не можете прикреплять файлы к сообщениям
Вы не можете скачивать файлы