На завтрашней улице (Фёдор Филиппов) [1965, Социальная драма, DVB]

 
Автор Сообщение

reversefile ®

Пол:

Стаж: 4 года 5 месяцев

Сообщений: 842

Откуда: ReverseFile.org



Награды: Нет

Торрент-статистика

Создавать темы 11-Авг-2014 06:21

[Цитировать]

На завтрашней улице
Жанр: Социальная драма
Год выпуска: 1965
Продолжительность: 1:34:52
Режиссёр: Фёдор Филиппов
В ролях: Георгий Куликов, Владимир Самойлов, Николай Барабанов, Люсьена Овчинникова, Николай Абрашин, Николай Волошин, Савелий Крамаров, Евгений Тетерин, Владимир Высоцкий, Валентина Березуцкая, Борис Амарантов, Вера Васильева, Екатерина Васильева, Всеволод Абдулов, Геннадий Ялович
Описание: На стройку крупной сибирской электростанции приезжает новый парторг Большаков, старый знакомый начальника строительства Платонова. У главного инженера Толстопятова, работящего, отзывчивого, но во многом рискованного специалиста, давно идут споры с Платоновым по принципиальным позициям. Вникнув в проблемы и нужды строителей, Большаков оказывается на стороне главного инженера. Аварийная ситуация, возникшая на стройке из-за резкого поднятия воды в реке, решает спор трёх руководителей. Уехав по вызову в министерство, Платонов назначает своим заместителем Толстопятова.
Семпл: http://sendfile.su/990196
Качество видео: DVB
Формат видео: MPEG-PS
Видео: MPEG2 Video 720x576 (4:3) 25.00fps 2774 Kbps (5000 Kbps)
Аудио: Русский MPEG Audio 48000Hz stereo 192Kbps

MediaInfo

Общее
Полное имя : E:\Torrents\На завтрашней улице.mpg
Формат : MPEG-PS
Размер файла : 2,01 Гбайт
Продолжительность : 1 ч. 34 м.
Режим общего битрейта : Переменный
Общий поток : 3027 Кбит/сек
Библиотека кодирования : (c) 1998-2011 Womble Multimedia, Inc. / MPEG Video Wizard DVD 5.0.1.100 (03/2011) / Jun 19 2011
Видео
Идентификатор : 224 (0xE0)
Формат : MPEG Video
Версия формата : Version 2
Профиль формата : Main@Main
Параметр BVOP формата : Да
Параметр матрицы формата : Выборочная
Продолжительность : 1 ч. 34 м.
Вид битрейта : Переменный
Битрейт : 2774 Кбит/сек
Максимальный битрейт : 5000 Кбит/сек
Ширина : 720 пикселей
Высота : 576 пикселей
Соотношение сторон : 4:3
Частота кадров : 25,000 кадров/сек
Стандарт вещания : PAL
Цветовое пространство : YUV
Субдискретизация насыщенности : 4:2:0
Битовая глубина : 8 бит
Метод сжатия : С потерями
Бит/(Пиксели*Кадры) : 0.268
Размер потока : 1,84 Гбайт (92%)
Библиотека кодирования : (c) 1998-2011 Womble Multimedia, Inc. / MPEG Video Wizard DVD 5.0.1.100 (03/2011) / Jun 19 2011
Аудио
Идентификатор : 192 (0xC0)
Формат : MPEG Audio
Версия формата : Version 1
Профиль формата : Layer 2
Продолжительность : 1 ч. 34 м.
Вид битрейта : Постоянный
Битрейт : 192 Кбит/сек
Каналы : 2 канала
Частота : 48,0 КГц
Метод сжатия : С потерями
Размер потока : 130 Мбайт (6%)
Меню

Скриншоты


[Профиль] [ЛС]

Создавать темы 06-Авг-2015 22:03 (спустя 11 месяцев 26 дней)

Топик был перенесен из форума Кино СССР в форум Кино СССР
sergej644
 
Кто просматривает тему:

Показать сообщения:    

Текущее время: Сегодня 14:29

Часовой пояс: GMT



Вы не можете начинать темы
Вы не можете отвечать на сообщения
Вы не можете редактировать свои сообщения
Вы не можете удалять свои сообщения
Вы не можете голосовать в опросах
Вы не можете прикреплять файлы к сообщениям
Вы не можете скачивать файлы