На его месте мог быть я (Константин Мурашев) [2013, Документальный, HDTV 1080i]

 
Автор Сообщение

TorrentFilm ®

Пол:

Стаж: 2 года

Сообщений: 7741



Награды: Нет

Торрент-статистика

Создавать темы 31-Янв-2015 00:01

[Цитировать]

На его месте мог быть я
Год выпуска: 2013
Страна: Россия
Студия: Первый канал
Жанр: Документальный
Продолжительность: 00:51:58
Перевод: Не требуется
Русские субтитры: нет
Режиссер: Константин Мурашев
Описание: История кинопроб легендарных советских фильмах: "Место встречи изменить нельзя", "Бумбараш", "Кавказская пленница", "Гусарская баллада", "Бриллиантовая рука", "Чародеи", "Буратино" и "Курьер". Как шли кастинги для популярных сериалов "Жуков" и "Вангелия". И как режиссеры подбирают актеров под роли со сложным пластическим гримом, как в фильме "Высоцкий. Спасибо, что живой". Актеры часто говорят, что их профессия зависима от воли режиссеров, продюсеров. Но больше всего актерский успех зависит от счастливого случая. Чаще всего такой случай предоставляется именно на кинопробах. Главное – не упустить его. Тогда, возможно, и вся жизнь сложится по-другому.
Доп. информация: Релиз -

Рип чистый. Без посторонних надписей.
Качество: HDTV 1080i
Контейнер: TS
Видео кодек: AVC
Аудио кодек: MP2
Видео: 1920x1080 (16:9) 25.000 fps ~ 10.7 Mbps, 0.206 bit/pixel
Аудио 1: AC3, 6 channels, 48000Hz, 384 Кбит/сек
Аудио 2: MPEG Audio 48000Hz stereo 192 Кбит/сек 2 channels

Скриншоты


Скринлист

MI

General
ID : 1 (0x1)
Complete name : H:\ВЫКЛАДКА\На его месте мог быть я (2013, Документальный, HDTV 1080i) (MYDIMKA).ts
Format : MPEG-TS
File size : 4.29 GiB
Duration : 51mn 58s
Overall bit rate mode : Variable
Overall bit rate : 11.8 Mbps
Video
ID : 1603 (0x643)
Menu ID : 603 (0x25B)
Format : AVC
Format/Info : Advanced Video Codec
Format profile : High@L4.0
Format settings, CABAC : Yes
Format settings, ReFrames : 3 frames
Codec ID : 27
Duration : 51mn 58s
Bit rate : 10.7 Mbps
Width : 1 920 pixels
Height : 1 080 pixels
Display aspect ratio : 16:9
Frame rate : 25.000 fps
Standard : Component
Color space : YUV
Chroma subsampling : 4:2:0
Bit depth : 8 bits
Scan type : Interlaced
Scan order : Top Field First
Bits/(Pixel*Frame) : 0.206
Stream size : 3.87 GiB (90%)
Color primaries : BT.709
Transfer characteristics : BT.709
Matrix coefficients : BT.709
Audio #1
ID : 2603 (0xA2B)
Menu ID : 603 (0x25B)
Format : AC-3
Format/Info : Audio Coding 3
Mode extension : CM (complete main)
Format settings, Endianness : Big
Codec ID : 6
Duration : 51mn 58s
Bit rate mode : Constant
Bit rate : 384 Kbps
Channel(s) : 6 channels
Channel positions : Front: L C R, Side: L R, LFE
Sampling rate : 48.0 KHz
Bit depth : 16 bits
Compression mode : Lossy
Delay relative to video : -80ms
Stream size : 143 MiB (3%)
Language : Russian
Audio #2
ID : 2604 (0xA2C)
Menu ID : 603 (0x25B)
Format : MPEG Audio
Format version : Version 1
Format profile : Layer 2
Codec ID : 3
Duration : 51mn 58s
Bit rate mode : Constant
Bit rate : 192 Kbps
Channel(s) : 2 channels
Sampling rate : 48.0 KHz
Compression mode : Lossy
Delay relative to video : -80ms
Stream size : 71.4 MiB (2%)
Language : Russian
[Профиль] [ЛС]
Кто просматривает тему:

Показать сообщения:    

Текущее время: Сегодня 12:11

Часовой пояс: GMT



Вы не можете начинать темы
Вы не можете отвечать на сообщения
Вы не можете редактировать свои сообщения
Вы не можете удалять свои сообщения
Вы не можете голосовать в опросах
Вы не можете прикреплять файлы к сообщениям
Вы не можете скачивать файлы