На гребне волны / Point Break (2015) BDRip 1080p от ExKinoRay | Лицензия

 
Автор Сообщение

Russian Mafia ®

Пол:

Стаж: 1 год 8 месяцев

Сообщений: 4257



Награды: 10 (Подробнее)

Mega Seeder 1 (Количество: 1) За внесенный вклад в развитие сайта (Количество: 1) Top Releaser 5 (Количество: 1)
Торрент-статистика

Создавать темы 13-Мар-2016 06:50

[Цитировать]

Информация о фильме
Название: На гребне волны
Оригинальное название: Point Break
Год выпуска: 2015
Жанр: Боевик, триллер, криминал
Выпущено: Германия, Китай, США, Alcon Entertainment, DMG Entertainment, Ehman Productions, Studio Babelsberg, Warner Bros. Pictures
Режиссер: Эриксон Кор
В ролях: Люк Брейси, Эдгар Рамирес, Тереза Палмер, Макс Тириот, Рэй Уинстон, Тобиас Зантельман, Джеймс ЛеГрос, Делрой Линдо, Боджесси Кристофер, Клеменс Шик, Матиас Варела, Николай Кински, Дороти Киршнер, Джуда Льюис, Джеймс Батлер, Глайнис Барбер, Баярдо Де Мургуйя, Дон Уоллес, Александр Яссин, Джо Тодтлинг
О фильме: Джонни — молодой агент ФБР, специализирующийся на работе под прикрытием. Он не раз выходил из самых сложных ситуаций, всегда доделывая свою работу до конца. Его очередным заданием становится проникновение в банду воров. Однако эти люди не обычные грабители: их главным отличием от остальных является увлечение экстремальными видами спорта. Свои умения они используют при каждом новом ограблении, и стать частью их команды очень непросто. Чтобы войти в банду и остановить преступников, Джонни придется доказать, что он такой же как они, а для этого ему не раз предстоит рискнуть собственной жизнью.

Файл
Качество: BDRip (1080p)
Видео: MPEG-4 AVC, 11663 Кбит/с, 1920x800, 23.976 кадр/с
Аудио: Русский (AC3, 6 ch, 640 Кбит/с), английский (DTS, 6 ch, 1509 Кбит/с)
Размер: 10.99 ГБ
Продолжительность: 01:53:51
Перевод: Дублированный
Субтитры: Русские, английские
Сохранены оригинальные чаптеры как на Blu-Ray.
Озвучивание - Дублированное (Лицензия)

x264

x264 [info]: frame I:1402 Avg QP:16.75 size:270014
x264 [info]: frame P:52368 Avg QP:19.02 size: 90362
x264 [info]: frame B:110008 Avg QP:20.71 size: 44072
x264 [info]: consecutive B-frames: 12.1% 6.2% 13.6% 18.1% 13.5% 29.6% 4.2% 1.2% 1.0% 0.4%
x264 [info]: mb I I16..4: 12.9% 69.6% 17.4%
x264 [info]: mb P I16..4: 1.2% 23.8% 1.4% P16..4: 28.8% 32.5% 10.0% 1.6% 0.1% skip: 0.6%
x264 [info]: mb B I16..4: 0.2% 4.2% 0.2% B16..8: 38.8% 21.9% 3.5% direct: 9.1% skip:22.1% L0:43.7% L1:43.0% BI:13.3%
x264 [info]: 8x8 transform intra:89.3% inter:53.8%
x264 [info]: direct mvs spatial:98.7% temporal:1.3%
x264 [info]: coded y,uvDC,uvAC intra: 94.9% 88.8% 67.9% inter: 42.1% 37.4% 16.6%
x264 [info]: i16 v,h,dc,p: 14% 11% 17% 58%
x264 [info]: i8 v,h,dc,ddl,ddr,vr,hd,vl,hu: 7% 8% 13% 11% 13% 11% 13% 11% 14%
x264 [info]: i4 v,h,dc,ddl,ddr,vr,hd,vl,hu: 8% 9% 7% 8% 15% 13% 16% 10% 14%
x264 [info]: i8c dc,h,v,p: 47% 22% 16% 15%
x264 [info]: Weighted P-Frames: Y:11.6% UV:8.1%
x264 [info]: ref P L0: 45.0% 9.1% 22.5% 10.7% 8.7% 3.9% 0.2%
x264 [info]: ref B L0: 72.8% 18.8% 6.5% 2.0%
x264 [info]: ref B L1: 91.5% 8.5%
x264 [info]: kb/s:11663.43

Инфо-файл

Общее
Уникальный идентификатор : 179963898927468078769303307674208967372 (0x8763C94370BE34A1A520922597041ACC)
Полное имя : D:ЗагрузкиPoint.Break.2015.x264.BDRip.(1080p).ExKinoRay.mkv
Формат : Matroska
Версия формата : Version 2
Размер файла : 11,0 Гбайт
Продолжительность : 1 ч. 53 м.
Общий поток : 13,8 Мбит/сек
Название фильма : На гребне волны.2015.Rip by: ollan
Дата кодирования : UTC 2016-03-12 22:07:56
Программа кодирования : mkvmerge v5.6.0 ('Kenya Kane') built on May 27 2012 16:44:04
Библиотека кодирования : libebml v1.2.3 + libmatroska v1.3.0
Видео
Идентификатор : 1
Формат : AVC
Формат/Информация : Advanced Video Codec
Профиль формата : High@L4.1
Параметр CABAC формата : Да
Параметр ReFrames формата : 5 кадров
Идентификатор кодека : V_MPEG4/ISO/AVC
Продолжительность : 1 ч. 53 м.
Битрейт : 11,7 Мбит/сек
Ширина : 1920 пикселей
Высота : 800 пикселей
Соотношение сторон : 2,40:1
Режим частоты кадров : Постоянный
Частота кадров : 23,976 (24000/1001) кадра/сек
Цветовое пространство : YUV
Субдискретизация насыщенности : 4:2:0
Битовая глубина : 8 бит
Тип развёртки : Прогрессивная
Бит/(Пиксели*Кадры) : 0.317
Размер потока : 9,06 Гбайт (82%)
Библиотека кодирования : x264 core 146 r2538 121396c
Настройки программы : cabac=1 / ref=5 / deblock=1:-3:-3 / analyse=0x3:0x133 / me=umh / subme=11 / psy=1 / psy_rd=1.00:0.05 / mixed_ref=1 / me_range=48 / chroma_me=1 / trellis=2 / 8x8dct=1 / cqm=0 / deadzone=21,11 / fast_pskip=0 / chroma_qp_offset=-3 / threads=12 / lookahead_threads=2 / sliced_threads=0 / nr=0 / decimate=0 / interlaced=0 / bluray_compat=0 / constrained_intra=0 / bframes=9 / b_pyramid=2 / b_adapt=2 / b_bias=0 / direct=3 / weightb=1 / open_gop=0 / weightp=2 / keyint=240 / keyint_min=23 / scenecut=40 / intra_refresh=0 / rc=2pass / mbtree=0 / bitrate=11663 / ratetol=1.0 / qcomp=0.60 / qpmin=0 / qpmax=69 / qpstep=4 / cplxblur=20.0 / qblur=0.5 / ip_ratio=1.40 / pb_ratio=1.30 / aq=1:1.00
Язык : English
Default : Да
Forced : Нет
Аудио #1
Идентификатор : 2
Формат : AC-3
Формат/Информация : Audio Coding 3
Расширение режима : CM (complete main)
Параметр Endianness формата : Big
Идентификатор кодека : A_AC3
Продолжительность : 1 ч. 53 м.
Вид битрейта : Постоянный
Битрейт : 640 Кбит/сек
Каналы : 6 каналов
Расположение каналов : Front: L C R, Side: L R, LFE
Частота : 48,0 КГц
Частота кадров : 31,250 кадров/сек (1536 spf)
Метод сжатия : С потерями
Размер потока : 521 Мбайт (5%)
Заголовок : Дублированный (Лицензия)
Язык : Russian
Default : Да
Forced : Нет
Аудио #2
Идентификатор : 3
Формат : DTS
Формат/Информация : Digital Theater Systems
Режим : 16
Параметр Endianness формата : Big
Идентификатор кодека : A_DTS
Продолжительность : 1 ч. 53 м.
Вид битрейта : Постоянный
Битрейт : 1509 Кбит/сек
Каналы : 6 каналов
Расположение каналов : Front: L C R, Side: L R, LFE
Частота : 48,0 КГц
Частота кадров : 93,750 кадра/сек (512 spf)
Битовая глубина : 24 бит
Метод сжатия : С потерями
Размер потока : 1,20 Гбайт (11%)
Язык : English
Default : Нет
Forced : Нет
Текст #1
Идентификатор : 4
Формат : UTF-8
Идентификатор кодека : S_TEXT/UTF8
Идентификатор кодека/Информация : UTF-8 Plain Text
Заголовок : Forced
Язык : Russian
Default : Да
Forced : Нет
Текст #2
Идентификатор : 5
Формат : UTF-8
Идентификатор кодека : S_TEXT/UTF8
Идентификатор кодека/Информация : UTF-8 Plain Text
Заголовок : Full
Язык : Russian
Default : Нет
Forced : Нет
Текст #3
Идентификатор : 6
Формат : UTF-8
Идентификатор кодека : S_TEXT/UTF8
Идентификатор кодека/Информация : UTF-8 Plain Text
Заголовок : Full
Язык : English
Default : Нет
Forced : Нет
Меню
00:00:00.000 : en:Chapter 01
00:10:11.819 : en:Chapter 02
00:21:05.138 : en:Chapter 03
00:29:20.925 : en:Chapter 04
00:42:44.895 : en:Chapter 05
00:50:05.794 : en:Chapter 06
01:03:19.462 : en:Chapter 07
01:12:43.942 : en:Chapter 08
01:20:40.418 : en:Chapter 09
01:27:14.520 : en:Chapter 10
01:32:44.350 : en:Chapter 11
01:39:02.603 : en:Chapter 12
01:53:50.657 : en:Chapter 13

Скриншоты



[Профиль] [ЛС]
Кто просматривает тему:

Показать сообщения:    

Текущее время: Сегодня 02:17

Часовой пояс: GMT



Вы не можете начинать темы
Вы не можете отвечать на сообщения
Вы не можете редактировать свои сообщения
Вы не можете удалять свои сообщения
Вы не можете голосовать в опросах
Вы не можете прикреплять файлы к сообщениям
Вы не можете скачивать файлы