На гребне волны / Point Break (Эриксон Кор) [2015 г., Боевик, триллер, криминал, спорт, BDRip 720p] DUB (Лицензия) + SUB

 
Автор Сообщение

BOSS ®

Пол:

Стаж: 2 года 2 месяца

Сообщений: 3751

Откуда: ODESSA



Награды: 20 (Подробнее)

Mega Seeder 5 (Количество: 1) Top Seeder 2 (Количество: 1) Top Keeper 1 (Количество: 1)
Торрент-статистика

Создавать темы 12-Мар-2016 10:43

[Цитировать]

-
На гребне волны / Point Break
Единственный закон, который имеет значение-закон притяжения-- Год выпуска: 2015
Страна: США, Германия, Китай
Производство: Alcon Entertainment, DMG Entertainment, Ehman Productions, Studio Babelsberg, Warner Bros. Pictures
Жанр: Боевик, триллер, криминал, спорт
Продолжительность: 01:53:50
Перевод: Профессиональный (полное дублирование) [лицензия], + Оригинал
Субтитры: Английские
Режиссер: Эриксон Кор
В ролях: Люк Брейси, Эдгар Рамирес, Тереза Палмер, Макс Тириот, Рэй Уинстон, Тобиас Зантельман, Джеймс ЛеГрос, Делрой Линдо, Боджесси Кристофер, Клеменс Шик
Описание: Джонни — молодой агент ФБР, специализирующийся на работе под прикрытием. Он не раз выходил из самых сложных ситуаций, всегда доделывая свою работу до конца. Его очередным заданием становится проникновение в банду воров. Однако эти люди не обычные грабители: их главным отличием от остальных является увлечение экстремальными видами спорта. Свои умения они используют при каждом новом ограблении, и стать частью их команды очень непросто. Чтобы войти в банду и остановить преступников, Джонни придется доказать, что он такой же как они, а для этого ему не раз предстоит рискнуть собственной жизнью…-[imdb]http://www.imdb.com/title/tt2058673[/imdb]-Качество: BDRip 720p
Формат: MKV
Видео кодек: H 264
Аудио кодек: AC3 / DTS
Видео: 1280x536 (2.40:1), 23.976 fps, MPEG4 AVC, ~5364 kbps avg, 0.326 bit/pixel
Аудио #1: 48 kHz, AC3 Dolby Digital, 3/2 (L,C,R,l,r) + LFE ch, ~448.00 kbps (русский)
Аудио #2: 48 kHz, DTS, 3/2 (L,C,R,l,r) + LFE ch, 1510.00 kbps (английский)
Формат субтитров: UTF-8 / VobSub

Это интересно:

• Ремейк одноимённого фильма 1991 года с Патриком Суэйзи и Киану Ривзом.
• Сценарий написал Курт Уиммер («Афера Томаса Крауна», «Эквилибриум», «Рекрут», «Законопослушный гражданин» etc.)
• В оригинальном фильме 1991 года Джеймс ЛеГрос сыграл преступника, а в римейке он играет члена ФБР.
• На шлемах, используемых для ограбления - карикатуры на президентов. Вероятно, это дань оригинальной картине.
• Фильм снимался в Австралии, Германии, Австрии, Италии, Швейцарии, Франции, Мексике, Венесуэле, Французской Полинезии, Индии и США.

MediaInfo:

Общее
Уникальный идентификатор : 186216898876254781124472310345050385866 (0x8C1811F6A3B9A4069A94B56305086DCA)
Полное имя : C:\Point.Break..2015..BDRip.720p.mkv
Формат : Matroska
Версия формата : Version 4 / Version 2
Размер файла : 5,83 Гбайт
Продолжительность : 1 ч. 53 м.
Общий поток : 7328 Кбит/сек
Название фильма : Point.Break..2015..BDRip.720p
Дата кодирования : UTC 2016-03-12 05:50:50
Программа кодирования : mkvmerge v8.3.0 ('Over the Horizon') 64bit
Библиотека кодирования : libebml v1.3.1 + libmatroska v1.4.2
Видео
Идентификатор : 1
Формат : AVC
Формат/Информация : Advanced Video Codec
Профиль формата : High@L4.1
Параметр CABAC формата : Да
Параметр ReFrames формата : 5 кадров
Идентификатор кодека : V_MPEG4/ISO/AVC
Продолжительность : 1 ч. 53 м.
Битрейт : 5364 Кбит/сек
Ширина : 1280 пикселей
Высота : 536 пикселей
Соотношение сторон : 2,40:1
Режим частоты кадров : Постоянный
Частота кадров : 23,976 кадра/сек
Цветовое пространство : YUV
Субдискретизация насыщенности : 4:2:0
Битовая глубина : 8 бит
Тип развёртки : Прогрессивная
Бит/(Пиксели*Кадры) : 0.326
Размер потока : 4,15 Гбайт (71%)
Библиотека кодирования : x264 core 148 r2665 a01e339
Настройки программы : cabac=1 / ref=5 / deblock=1:0:0 / analyse=0x3:0x113 / me=umh / subme=8 / psy=1 / psy_rd=1.00:0.00 / mixed_ref=1 / me_range=16 / chroma_me=1 / trellis=1 / 8x8dct=1 / cqm=0 / deadzone=21,11 / fast_pskip=0 / chroma_qp_offset=-2 / threads=17 / lookahead_threads=2 / sliced_threads=0 / nr=0 / decimate=1 / interlaced=0 / bluray_compat=0 / constrained_intra=0 / bframes=3 / b_pyramid=2 / b_adapt=2 / b_bias=0 / direct=3 / weightb=1 / open_gop=0 / weightp=2 / keyint=250 / keyint_min=23 / scenecut=40 / intra_refresh=0 / rc_lookahead=50 / rc=2pass / mbtree=1 / bitrate=5364 / ratetol=1.0 / qcomp=0.60 / qpmin=0 / qpmax=69 / qpstep=4 / cplxblur=20.0 / qblur=0.5 / ip_ratio=1.40 / aq=1:1.00
Язык : English
Default : Да
Forced : Нет
Аудио #1
Идентификатор : 2
Формат : AC-3
Формат/Информация : Audio Coding 3
Расширение режима : CM (complete main)
Параметр Endianness формата : Big
Идентификатор кодека : A_AC3
Продолжительность : 1 ч. 53 м.
Вид битрейта : Постоянный
Битрейт : 448 Кбит/сек
Каналы : 6 каналов
Расположение каналов : Front: L C R, Side: L R, LFE
Частота : 48,0 КГц
Метод сжатия : С потерями
Размер потока : 365 Мбайт (6%)
Язык : Russian
Default : Да
Forced : Нет
Аудио #2
Идентификатор : 3
Формат : DTS
Формат/Информация : Digital Theater Systems
Режим : 16
Параметр Endianness формата : Big
Идентификатор кодека : A_DTS
Продолжительность : 1 ч. 53 м.
Вид битрейта : Постоянный
Битрейт : 1509 Кбит/сек
Каналы : 6 каналов
Расположение каналов : Front: L C R, Side: L R, LFE
Частота : 48,0 КГц
Битовая глубина : 24 бит
Метод сжатия : С потерями
Размер потока : 1,20 Гбайт (21%)
Язык : English
Default : Нет
Forced : Нет
Текст #1
Идентификатор : 4
Формат : UTF-8
Идентификатор кодека : S_TEXT/UTF8
Идентификатор кодека/Информация : UTF-8 Plain Text
Заголовок : English regular
Язык : English
Default : Нет
Forced : Нет
Текст #2
Идентификатор : 5
Формат : UTF-8
Идентификатор кодека : S_TEXT/UTF8
Идентификатор кодека/Информация : UTF-8 Plain Text
Заголовок : English sdh
Язык : English
Default : Нет
Forced : Нет
Текст #3
Идентификатор : 6
Формат : VobSub
Режим смешивания : zlib
Идентификатор кодека : S_VOBSUB
Идентификатор кодека/Информация : Picture based subtitle format used on DVDs
Язык : English
Default : Нет
Forced : Нет
Меню
00:00:00.000 : en:00:00:00.000
00:10:11.820 : en:00:10:11.820
00:21:05.139 : en:00:21:05.139
00:29:20.926 : en:00:29:20.926
00:42:44.896 : en:00:42:44.896
00:50:05.794 : en:00:50:05.794
01:03:19.462 : en:01:03:19.462
01:12:43.943 : en:01:12:43.943
01:20:40.419 : en:01:20:40.419
01:27:14.521 : en:01:27:14.521
01:32:44.350 : en:01:32:44.350
01:39:02.603 : en:01:39:02.603

Скриншоты:

[Профиль] [ЛС]
Кто просматривает тему:

Показать сообщения:    

Текущее время: Сегодня 16:56

Часовой пояс: GMT



Вы не можете начинать темы
Вы не можете отвечать на сообщения
Вы не можете редактировать свои сообщения
Вы не можете удалять свои сообщения
Вы не можете голосовать в опросах
Вы не можете прикреплять файлы к сообщениям
Вы не можете скачивать файлы