На гребне волны в 3Д / Point Break 3D (Эриксон Кор / Ericson Core) [2015, Боевик, Триллер, Криминал, Спорт, BDrip-AVC] Half OverUnder / Вертикальная анаморфная стереопара

 
Автор Сообщение

TorrentFilm ®

Пол:

Стаж: 1 год 11 месяцев

Сообщений: 7741



Награды: Нет

Торрент-статистика

Создавать темы 26-Мар-2016 00:08

[Цитировать]

-На гребне волны
Point Break

«Единственный закон, имеющий значение - гравитация»
- Год выпуска: 2015
Страна: США, Германия, Китай (Warner Bros. Pictures, Alcon Entertainment, DMG Entertainment)
Жанр: Боевик, Триллер, Криминал, Экстрим
Продолжительность: 01:53:51
Перевод: Профессиональный дублированный - Лицензия
Режиссер: Эриксон Кор / Ericson Core-Роли исполняли (дублировали):

Utah - Люк Брейси (Андрей Вальц)
Bodhi - Эдгар Рамирес (Александр Дзюба)
Pappas - Рэй Уинстон (Олег Куценко)
Samsara - Тереза Палмер
Grommet - Матиас Варела
Roach - Клеменс Шик (Иван Калинин)
Chowder - Тобиас Зантельман
Jeff - Макс Тириот
Instructor Hall - Делрой Линдо
Pascal Al Fariq - Николай Кински
Young Utah - Джуда Льюис
FBI - Head of Investigations - Глайнис Барбер
-Описание: Джонни — молодой агент ФБР, специализирующийся на работе под прикрытием. Он не раз выходил из самых сложных ситуаций, всегда доделывая свою работу до конца. Его очередным заданием становится проникновение в банду воров. Однако эти люди не обычные грабители: их главным отличием от остальных является увлечение экстремальными видами спорта. Свои умения они используют при каждом новом ограблении, и стать частью их команды очень непросто. Чтобы войти в банду и остановить преступников, Джонни придется доказать, что он такой же как они, а для этого ему не раз предстоит рискнуть собственной жизнью…

Знаете ли вы, что...

  • Это первая роль Терезы Палмер после рождения сына, однако практически все трюки в фильме выполняет она сама.
  • На шлемы, в которых преступники шли на дело, были приклеены карикатурные изображения президентов — как дань уважения оригинальному фильму.
  • Джеймс ЛеГрос играет как в оригинальном фильме, так и в ремейке картины.
  • В фильме 1991 года Джеймс ЛеГрос играл одного из бывших президентов. В ремейке он снялся в роли сотрудника ФБР.
  • Первым на роль утвердили Джерарда Батлера. Он должен был играть роль Бодхи, лидера группы любителей экстремальных видов спорта. Батлеру пришлось свернуть своё участие в проекте из-за перегруженного рабочего графика.
  • Ещё до того, как начались съёмки ремейка, была идея снять продолжение фильма «На гребне волны». Действие происходило бы в Индонезии, а на главную роль прочили австралийского актёра Дэмиэна Уолша-Хоулинга. На самом деле, с оригинальным фильмом это продолжение роднило бы только сочетание серфингист-преступник. Со временем, однако, этот проект был отвергнут.
  • Боджесси Кристофер, исполняющий роль директора ФБР, снимался и в фильме 1991 года. Там он сыграл Громмета, одного из серфингистов-грабителей, который носил маску президента Линдона Джонсона.
  • Кандидатами на роль Бодхи были Том Харди, Колин Фаррелл, Хью Джекман, Крис Хемсворт и Гарретт Хедлунд.
  • Эдгар Рамирес, сыгравший Бодхи, снялся в фильме «Цель номер один» режиссёра Кэтрин Бигелоу, которая и сняла «На гребне волны» 1991 года.
  • Кандидатами на роль Джонни Юты были Тейлор Китч, Николас Холт, Аарон Тейлор-Джонсон, Крис Пайн, Крис Пратт и Сэм Клафлин.
  • Некоторые сцены снимались в Венесуэле на водопаде Анхель, высота непрерывного свободного падения в котором равна 807 метрам (это самый высокий в мире водопад). Эдгар Рамирес, исполнитель роли Бодхи, родился в Венесуэле.
  • У актрисы Терезы Палмер, она играет Самсару, есть сын Бодхи Рэйн. Главного героя фильма тоже зовут Бодхи.
  • Эдгар Рамирес и Рэй Уинстоун играли бога Ареса в фильмах, снятых по мотивам древнегреческих мифов. Рамирес снялся в «Гневе титанов», а Уинстоун в фильме «Перси Джексон и похититель молний».
  • Режиссёр Эриксон Кор работал оператором на съёмках фильма «Форсаж», имеющего много общего с фильмом «На гребне волны» (1991).
Премьера: 1 декабря 2015 (24 декабря 2015)
Бюджет: $105 000 000
Кассовые сборы: $131 338 490

. .
-Качество: BDRip (by Ash61)
Контейнер: MKV
Формат 3D: Half OverUnder / Вертикальная анаморфная стереопара
Порядок ракурсов: левый ракурс первый-Видео: AVC / 23,976 fps / 1920х1080p / 17.8 Mbps
Аудио:
#1 - Русский / AC3 / 48 KHz / 5.1 ch / 640 Kbps (Дубляж - BD 3D CEE)
#2 - Английский / AC3 / 48 KHz / 5.1 ch / 640 Kbps (Original - BD 3D CEE)
Субтитры (SRT):
Вшитые (softsub):
#1 - Русские Форсированные (включены по умолчанию)
#2 - Русские Полные
#3 - English Full
#4 - English SDH
#5 - English SDH-Colored
Внешние (UTF-8):
#1 - Русские Форсированные (включены по умолчанию)

MediaInfo

General
Unique ID : 226477651955712904847839994377277992589 (0xAA6202588BBA01BDA0ACCA207FD6EE8D)
Complete name : E:\PointBreak(2015)3D-halfOU(Ash61)\PointBreak(2015)3D-halfOU(Ash61).mkv
Format : Matroska
Format version : Version 2
File size : 15.5 GiB
Duration : 1h 53mn
Overall bit rate : 19.5 Mbps
Movie name : На гребне волны / Point Break (2015) в 3Д
Encoded date : UTC 2016-03-15 17:17:23
Writing application : mkvmerge v5.8.0 ('No Sleep / Pillow') built on Sep 2 2012 15:37:04
Writing library : libebml v1.2.3 + libmatroska v1.3.0
Video
ID : 1
Format : AVC
Format/Info : Advanced Video Codec
Format profile : High@L4.1
Format settings, CABAC : Yes
Format settings, ReFrames : 4 frames
Codec ID : V_MPEG4/ISO/AVC
Duration : 1h 53mn
Bit rate : 17.8 Mbps
Width : 1 920 pixels
Height : 1 080 pixels
Display aspect ratio : 16:9
Frame rate mode : Constant
Frame rate : 23.976 fps
Color space : YUV
Chroma subsampling : 4:2:0
Bit depth : 8 bits
Scan type : Progressive
Bits/(Pixel*Frame) : 0.358
Stream size : 14.2 GiB (91%)
Title : BDRip by Ash61
Writing library : x264 core 146 r2538 121396c
Encoding settings : cabac=1 / ref=4 / deblock=1:-3:-3 / analyse=0x3:0x113 / me=umh / subme=10 / psy=1 / psy_rd=1.00:0.00 / mixed_ref=1 / me_range=32 / chroma_me=1 / trellis=2 / 8x8dct=1 / cqm=0 / deadzone=21,11 / fast_pskip=1 / chroma_qp_offset=-2 / threads=12 / lookahead_threads=3 / sliced_threads=0 / nr=0 / decimate=1 / interlaced=0 / bluray_compat=0 / constrained_intra=0 / bframes=12 / b_pyramid=2 / b_adapt=2 / b_bias=0 / direct=3 / weightb=1 / open_gop=0 / weightp=2 / keyint=250 / keyint_min=23 / scenecut=40 / intra_refresh=0 / rc_lookahead=60 / rc=crf / mbtree=1 / crf=15.2 / qcomp=0.70 / qpmin=0 / qpmax=69 / qpstep=4 / vbv_maxrate=40000 / vbv_bufsize=30000 / crf_max=0.0 / nal_hrd=none / filler=0 / frame-packing=4 / ip_ratio=1.40 / aq=1:0.70
Language : English
Default : Yes
Forced : No
Audio #1
ID : 2
Format : AC-3
Format/Info : Audio Coding 3
Mode extension : CM (complete main)
Format settings, Endianness : Big
Codec ID : A_AC3
Duration : 1h 53mn
Bit rate mode : Constant
Bit rate : 640 Kbps
Channel(s) : 6 channels
Channel positions : Front: L C R, Side: L R, LFE
Sampling rate : 48.0 KHz
Bit depth : 16 bits
Compression mode : Lossy
Stream size : 521 MiB (3%)
Title : Дубляж - BD 3D CEE
Language : Russian
Default : Yes
Forced : No
Audio #2
ID : 3
Format : AC-3
Format/Info : Audio Coding 3
Mode extension : CM (complete main)
Format settings, Endianness : Big
Codec ID : A_AC3
Duration : 1h 53mn
Bit rate mode : Constant
Bit rate : 640 Kbps
Channel(s) : 6 channels
Channel positions : Front: L C R, Side: L R, LFE
Sampling rate : 48.0 KHz
Bit depth : 16 bits
Compression mode : Lossy
Stream size : 521 MiB (3%)
Title : Original - BD 3D CEE
Language : English
Default : No
Forced : No
Text #1
ID : 4
Format : UTF-8
Codec ID : S_TEXT/UTF8
Codec ID/Info : UTF-8 Plain Text
Title : Форсированные
Language : Russian
Default : Yes
Forced : No
Text #2
ID : 5
Format : UTF-8
Codec ID : S_TEXT/UTF8
Codec ID/Info : UTF-8 Plain Text
Title : Полные
Language : Russian
Default : No
Forced : No
Text #3
ID : 6
Format : UTF-8
Codec ID : S_TEXT/UTF8
Codec ID/Info : UTF-8 Plain Text
Title : Full
Language : English
Default : No
Forced : No
Text #4
ID : 7
Format : UTF-8
Codec ID : S_TEXT/UTF8
Codec ID/Info : UTF-8 Plain Text
Title : SDH
Language : English
Default : No
Forced : No
Text #5
ID : 8
Format : UTF-8
Codec ID : S_TEXT/UTF8
Codec ID/Info : UTF-8 Plain Text
Title : SDH - Colored
Language : English
Default : No
Forced : No
Menu
00:00:00.000 : :1
00:10:11.820 : :2
00:21:05.139 : :3
00:29:20.926 : :4
00:42:44.896 : :5
00:50:05.794 : :6
01:03:19.462 : :7
01:12:43.943 : :8
01:20:40.419 : :9
01:27:14.521 : :10
01:32:44.350 : :11
01:39:02.603 : :12

Для оценки 3Д - Анимированные скрины















[Профиль] [ЛС]
Кто просматривает тему:

Показать сообщения:    

Текущее время: Сегодня 04:58

Часовой пояс: GMT



Вы не можете начинать темы
Вы не можете отвечать на сообщения
Вы не можете редактировать свои сообщения
Вы не можете удалять свои сообщения
Вы не можете голосовать в опросах
Вы не можете прикреплять файлы к сообщениям
Вы не можете скачивать файлы