На грани / Man on a Ledge (2012) BDRip 720p от HELLYWOOD | D, A

 
Автор Сообщение

Russian Mafia ®

Пол:

Стаж: 1 год 8 месяцев

Сообщений: 4256



Награды: 10 (Подробнее)

Top Releaser 3 (Количество: 1) Top Releaser 4 (Количество: 1) Mega Seeder 3 (Количество: 1)
Торрент-статистика

Создавать темы 09-Апр-2016 10:01

[Цитировать]

Информация о фильме
Название: На грани
Оригинальное название: Man on a Ledge
Год выхода: 2012
Жанр: триллер, боевик, криминал
Режиссер: Асгер Лет
В ролях: Сэм Уортингтон, Элизабет Бэнкс, Джейми Белл, Дженезис Родригез, Эд Харрис, Энтони Маки, Титус Уэлливер, Эдвард Бёрнс, Уильям Сэдлер, Кира Седжвик
О фильме:
Экс-полицейский, обвиняемый в преступлении, которого он якобы не совершал, собирается покончить жизнь самоубийством, сбросившись с крыши одного из отелей на Манхэттене. С ним в переговоры вступает психолог нью-йоркской полиции. Напряжение нарастает с каждой минутой, на площадь стягиваются наряды спецподразделений, толпа оглашается женскими криками. А в это время на месте происшествия, прямо под носом у полиции, совершается грандиозное ограбление века: неизвестные похищают уникальные бриллианты…

Страна: США
Студия: Di Bonaventura Pictures, Summit Entertainment
Продолжительность: 01:42:23
Перевод: Профессиональный (дублированный) Blu-ray RUS + Авторский (одноголосый, закадровый) А.Гаврилов + Профессиональный (многоголосый, закадровый) ТРК Україна
Релиз:
Файл
Формат: Matroska
Видео: 1280x534 at 23.976 fps, x264@L4.1, ~6800 kbps avg
Аудио#1: Russian: 48 kHz, AC3, 3/2 (L,C,R,l,r) + LFE ch, ~640.00 kbps avg |Дубляж, Blu-ray RUS|
Аудио#2: Russian: 48 kHz, AC3, 3/2 (L,C,R,l,r) + LFE ch, ~640.00 kbps avg |Авторский, А.Гаврилов|
Аудио#3: Ukrainian: 48 kHz, AC3, 2/0 (L,R) ch, ~192.00 kbps avg |Многоголосый закадровый, ТРК Україна|
Аудио#4: English: 48 kHz, AC3, 3/2 (L,C,R,l,r) + LFE ch, ~640.00 kbps avg
Субтитры: Russian (Voronine), Ukrainian, English (Full, SDH)

Знаете ли Вы, что...

Общие планы, показывающие актёров на краю карниза, не являются результатом монтажа или комбинированных съёмок. Страховочные тросы были либо спрятаны от камеры, либо убраны в монтажно-тонировочный период.
На роль Лидии одно время планировали пригласить Эми Адамс.
Специалист по переговорам Лидия Мерсер в исполнении Элизабет Бэнкс помогает несправедливо осуждённому и бежавшему из тюрьмы Нику, его сыграл Сэм Уортингтон, доказать свою невиновность. В фильме «Три дня на побег» (2010) Бэнкс сама играет невинно осуждённую женщину, которая совершает побег с помощью мужа.
Женщины на соседней крыше держат плакаты «Прыгай ко мне», «Мы с тобой» и «Незамужем».
Надпись на крыше гласит: «Ремонт крыш. Круглые сутки». Это объясняет присутствие там брезента, под которым прячутся Джоуи в исполнении Джейми Белла и Энджи, которую сыграла Дженезис Родригез.
Записки Джека Догерти в исполнении Эдварда Бёрнса к Лиди Мерсер, которую сыграла Элизабет Бэнкс: «Комнату осмотрели. Отпечатков нет» и «Пробиваем пальчики, 5 минут».
Неопрятного вида мужчину, который в конце концов помогает Нику Кэссиди доказать свою невиновность, мельком видно в эпизоде, где Майк Аккерман заходит в полицейский участок и впервые узнаёт о том, что на карнизе здания стоит человек.
Поезд, под который попадает джип после эпизода на кладбище, принадлежал железнодорожной ветке «New York and Atlantic Railway».

MI

Общее
Уникальный идентификатор : 211620416051927321181818271600667915165 (0x9F349C0F84FFCFDC8F1FF77D2EEDF39D)
Полное имя : Na.Grani.2012.2xRus.Ukr.Eng.BDRip.720p.by_potroks.mkv
Формат : Matroska
Версия формата : Version 4 / Version 2
Размер файла : 6,37 Гбайт
Продолжительность : 1 ч. 42 м.
Общий поток : 8901 Кбит/сек
Название фильма : Man on a Ledge (2012)
Дата кодирования : UTC 2016-04-08 07:09:53
Программа кодирования : mkvmerge v5.9.0 ('On The Loose') built on Dec 15 2012 16:39:58
Библиотека кодирования : libebml v1.3.0 + libmatroska v1.4.0
Видео
Идентификатор : 1
Формат : AVC
Формат/Информация : Advanced Video Codec
Профиль формата : High@L4.1
Параметр CABAC формата : Да
Параметр ReFrames формата : 9 кадров
Идентификатор кодека : V_MPEG4/ISO/AVC
Продолжительность : 1 ч. 42 м.
Битрейт : 6795 Кбит/сек
Ширина : 1280 пикселей
Высота : 534 пикселя
Соотношение сторон : 2,40:1
Режим частоты кадров : Постоянный
Частота кадров : 23,976 кадра/сек
Цветовое пространство : YUV
Субдискретизация насыщенности : 4:2:0
Битовая глубина : 8 бит
Тип развёртки : Прогрессивная
Бит/(Пиксели*Кадры) : 0.415
Размер потока : 4,73 Гбайт (74%)
Заголовок : potroks
Библиотека кодирования : x264 core 146 r2538 121396c
Настройки программы : cabac=1 / ref=9 / deblock=1:-3:-3 / analyse=0x3:0x113 / me=umh / subme=11 / psy=1 / psy_rd=1.00:0.05 / mixed_ref=1 / me_range=48 / chroma_me=1 / trellis=2 / 8x8dct=1 / cqm=0 / deadzone=21,11 / fast_pskip=0 / chroma_qp_offset=-3 / threads=9 / lookahead_threads=2 / sliced_threads=0 / nr=0 / decimate=0 / interlaced=0 / bluray_compat=0 / constrained_intra=0 / bframes=10 / b_pyramid=2 / b_adapt=2 / b_bias=0 / direct=3 / weightb=1 / open_gop=0 / weightp=2 / keyint=240 / keyint_min=23 / scenecut=40 / intra_refresh=0 / rc_lookahead=60 / rc=2pass / mbtree=0 / bitrate=6795 / ratetol=1.0 / qcomp=0.70 / qpmin=0 / qpmax=69 / qpstep=4 / cplxblur=20.0 / qblur=0.5 / vbv_maxrate=14000 / vbv_bufsize=14000 / nal_hrd=none / filler=0 / ip_ratio=1.40 / pb_ratio=1.30 / aq=1:0.80
Язык : English
Default : Да
Forced : Нет
Аудио #1
Идентификатор : 2
Формат : AC-3
Формат/Информация : Audio Coding 3
Расширение режима : CM (complete main)
Параметр Endianness формата : Big
Идентификатор кодека : A_AC3
Продолжительность : 1 ч. 42 м.
Вид битрейта : Постоянный
Битрейт : 640 Кбит/сек
Каналы : 6 каналов
Расположение каналов : Front: L C R, Side: L R, LFE
Частота : 48,0 КГц
Метод сжатия : С потерями
Размер потока : 469 Мбайт (7%)
Заголовок : Dub | DD 5.1 @ 640 kbps - Blu-ray RUS
Язык : Russian
Default : Да
Forced : Нет
Аудио #2
Идентификатор : 3
Формат : AC-3
Формат/Информация : Audio Coding 3
Расширение режима : CM (complete main)
Параметр Endianness формата : Big
Идентификатор кодека : A_AC3
Продолжительность : 1 ч. 42 м.
Вид битрейта : Постоянный
Битрейт : 640 Кбит/сек
Каналы : 6 каналов
Расположение каналов : Front: L C R, Side: L R, LFE
Частота : 48,0 КГц
Метод сжатия : С потерями
Размер потока : 469 Мбайт (7%)
Заголовок : AVO | DD 5.1 @ 640 kbps - A.Gavrilov
Язык : Russian
Default : Нет
Forced : Нет
Аудио #3
Идентификатор : 4
Формат : AC-3
Формат/Информация : Audio Coding 3
Расширение режима : CM (complete main)
Параметр Endianness формата : Big
Идентификатор кодека : A_AC3
Продолжительность : 1 ч. 42 м.
Вид битрейта : Постоянный
Битрейт : 192 Кбит/сек
Каналы : 2 канала
Расположение каналов : Front: L R
Частота : 48,0 КГц
Метод сжатия : С потерями
Размер потока : 141 Мбайт (2%)
Заголовок : MVO | DD 2.0 @ 192 kbps - ТРК Україна
Язык : Ukrainian
Default : Нет
Forced : Нет
Аудио #4
Идентификатор : 5
Формат : AC-3
Формат/Информация : Audio Coding 3
Расширение режима : CM (complete main)
Параметр Endianness формата : Big
Идентификатор кодека : A_AC3
Продолжительность : 1 ч. 42 м.
Вид битрейта : Постоянный
Битрейт : 640 Кбит/сек
Каналы : 6 каналов
Расположение каналов : Front: L C R, Side: L R, LFE
Частота : 48,0 КГц
Метод сжатия : С потерями
Размер потока : 469 Мбайт (7%)
Заголовок : Original | DD 5.1 @ 640 kbps
Язык : English
Default : Нет
Forced : Нет
Текст #1
Идентификатор : 6
Формат : UTF-8
Идентификатор кодека : S_TEXT/UTF8
Идентификатор кодека/Информация : UTF-8 Plain Text
Заголовок : Voronine
Язык : Russian
Default : Нет
Forced : Нет
Текст #2
Идентификатор : 7
Формат : UTF-8
Идентификатор кодека : S_TEXT/UTF8
Идентификатор кодека/Информация : UTF-8 Plain Text
Язык : Ukrainian
Default : Нет
Forced : Нет
Текст #3
Идентификатор : 8
Формат : UTF-8
Идентификатор кодека : S_TEXT/UTF8
Идентификатор кодека/Информация : UTF-8 Plain Text
Заголовок : Full
Язык : English
Default : Нет
Forced : Нет
Текст #4
Идентификатор : 9
Формат : UTF-8
Идентификатор кодека : S_TEXT/UTF8
Идентификатор кодека/Информация : UTF-8 Plain Text
Заголовок : SDH
Язык : English
Default : Нет
Forced : Нет
Меню
00:00:00.000 : en:00:00:00.000
00:04:04.744 : en:00:04:04.744
00:08:02.315 : en:00:08:02.315
00:13:43.364 : en:00:13:43.364
00:17:10.029 : en:00:17:10.029
00:25:02.876 : en:00:25:02.876
00:30:20.902 : en:00:30:20.902
00:37:03.430 : en:00:37:03.430
00:44:58.529 : en:00:44:58.529
00:50:51.674 : en:00:50:51.674
00:55:50.013 : en:00:55:50.013
01:00:18.740 : en:01:00:18.740
01:06:13.511 : en:01:06:13.511
01:11:18.816 : en:01:11:18.816
01:15:50.963 : en:01:15:50.963
01:20:46.884 : en:01:20:46.884
01:25:06.977 : en:01:25:06.977
01:32:40.305 : en:01:32:40.305

Скриншоты


[Профиль] [ЛС]
Кто просматривает тему:

Показать сообщения:    

Текущее время: Сегодня 08:12

Часовой пояс: GMT



Вы не можете начинать темы
Вы не можете отвечать на сообщения
Вы не можете редактировать свои сообщения
Вы не можете удалять свои сообщения
Вы не можете голосовать в опросах
Вы не можете прикреплять файлы к сообщениям
Вы не можете скачивать файлы