Наш дом / Our House (Марк Гриффитс / Mark Griffiths) [2006, США, Драма, семейный, HDTVRip] MVO

 
Автор Сообщение

TorrentFilm ®

Пол:

Стаж: 2 года

Сообщений: 7741



Награды: Нет

Торрент-статистика

Создавать темы 16-Янв-2015 00:00

[Цитировать]

Наш дом / Our House
Страна: США
Жанр: Драма, семейный
Год выпуска: 2006
Продолжительность: 01:24:38
Перевод: Профессиональный (многоголосый закадровый)
Cубтитры: нет
Режиссер: Марк Гриффитс / Mark Griffiths
В ролях: Дорис Робертс, Джуди Рейс, Эллен Гир, Джим Коуди Уильямс, Линда Уильямс, Stacy Solodkin, Э.Дж. Каллахан, Дебора Ван Волкенбор, Норман Элден, Гейб Коэн, Омар Дж. Дорси, Грег Эвиган, Лоурен Фэйн, Хсу Гарсиа, Шэшони Холл, Энн Магнусон, Джефф Маркус, Мэнди МакМиллиан, Марсия Моран, Джон О`Брайэн ..
Описание: 1. Бездомная женщина спасает жизнь вдове из Бевирли Хиллс, и в знак благодарности состоятельная женщина открывает двери своего дома не только перед ней, но и перед её лишенными крова друзьями. Возражения со стороны членов семьи и знакомых вдовы приводят к судебному разбирательству, в результате которого она может потерять всё, за что боролась.
2. Семидесятилетняя вдова из Беверли Хиллз Рут Гэллоуэй просто влачит существование с тех пор как умер ее любимый муж Мартин, не доживший трех лет до пятидесятой годовщины их свадьбы. Рут проводит дни, предаваясь воспоминаниям о прошлом и ухаживая за розами, хотя ее сын Пол, который на протяжении ряда лет был далек от отца, старается вернуть мать к активной жизни. Однако ее дочь Джина, юрист, у которой ни на кого, кроме себя, времени не хватает, считает, что мать следует отдать в дом для престарелых, где за ней могли бы присматривать. Но однажды ночью чуть не происходит трагедия, и Билли, бездомная женщина, спасает Рут от неминуемой гибели. При этом ни Рут, ни Билли не могли себе представить, что произойдёт после той ночи. Желая отблагодарить за спасение, Рут приглашает Билли – честолюбивую писательницу, которая тоже потеряла мужа, остаться жить в ее доме. Спустя какое-то время Рут предлагает Билли организовать жилье для своих друзей с улицы: Милкбона, Тьюнза, Макса, Далласа и для больной старушки Роузи. По мере того как семья Рут разрастается, у нее появляется цель в жизни, хотя соседи явно не испытывают восторга от близлежащего "приюта", поэтому они затевают против Рут судебный процесс. Их влиятельный адвокат Том считает дело элементарным, самой же Рут явно требуются средства защиты. И она их находит в собственном доме среди друзей.
3. Богатая вдова Рут решает приютить бездомную женщину Билли и ее друзей после того, как та спасла ей жизнь, однако родственники Рут не в восторге от этой идеи. Начинается судебная тяжба, которая может лишить вдову всего ее состояния…
Сэмпл: https://yadi.sk/i/zV_z4wytdygG7
Доп. информация: За предоставленный рип благодарим Ledy_X
"Спасибы" просьба ПИСАТЬ в теме, тем самым вы продлеваете жизнь раздаче.
Релиз-первоисточник
Видео: 720x400 (1.80:1), 25 fps, XviD build 50 ~2110 kbps avg, 0.29 bit/pixel
Аудио: 48 kHz, AC3 Dolby Digital, 2/0 (L,R) ch, ~192 kbps

MediaInfo

Наш дом - Our House [Rip by Ledy_X].avi
Format : AVI
Format/Info : Audio Video Interleave
File size : 1.37 GiB
Duration : 1h 24mn
Overall bit rate : 2 313 Kbps
Movie name : Наш дом - Our House [Rip by Ledy_X]
Director : Rip by Ledy_X
Writing application : VirtualDubMod 1.5.10.3 | www.virtualdub-fr.org || (build 2550/release)
Copyright : Edich2
Comment : RuTracker.org
Video
ID : 0
Format : MPEG-4 Visual
Format profile : Advanced Simple@L5
Format settings, BVOP : 1
Format settings, QPel : No
Format settings, GMC : No warppoints
Format settings, Matrix : Default (MPEG)
Codec ID : XVID
Codec ID/Hint : XviD
Duration : 1h 24mn
Bit rate : 2 111 Kbps
Width : 720 pixels
Height : 400 pixels
Display aspect ratio : 16:9
Frame rate : 25.000 fps
Color space : YUV
Chroma subsampling : 4:2:0
Bit depth : 8 bits
Scan type : Progressive
Compression mode : Lossy
Bits/(Pixel*Frame) : 0.293
Stream size : 1.25 GiB (91%)
Writing library : XviD 1.2.1 (UTC 2008-12-04)
Audio
ID : 1
Format : AC-3
Format/Info : Audio Coding 3
Mode extension : CM (complete main)
Format settings, Endianness : Big
Codec ID : 2000
Duration : 1h 24mn
Bit rate mode : Constant
Bit rate : 192 Kbps
Channel(s) : 2 channels
Channel positions : Front: L R
Sampling rate : 48.0 KHz
Bit depth : 16 bits
Compression mode : Lossy
Stream size : 116 MiB (8%)
Alignment : Split accross interleaves
Interleave, duration : 40 ms (1.00 video frame)
Interleave, preload duration : 500 ms

Скриншоты


[Профиль] [ЛС]

Создавать темы 06-Авг-2015 22:48 (спустя 6 месяцев 21 день)

Топик был перенесен из форума Фильмы до 2014 года в форум Фильмы до 2012 года
sergej644
 
Кто просматривает тему:

Показать сообщения:    

Текущее время: Сегодня 09:57

Часовой пояс: GMT



Вы не можете начинать темы
Вы не можете отвечать на сообщения
Вы не можете редактировать свои сообщения
Вы не можете удалять свои сообщения
Вы не можете голосовать в опросах
Вы не можете прикреплять файлы к сообщениям
Вы не можете скачивать файлы