Наш бренд – кризис / Our Brand Is Crisis (2015) BDRip 720p | Р

 
Автор Сообщение

ODESSA ®

Пол:

Стаж: 1 год 7 месяцев

Сообщений: 400

Откуда: ODESSA



Награды: Нет

Торрент-статистика

Создавать темы 21-Авг-2016 06:19

[Цитировать]

Наш бренд – кризис / Our Brand Is Crisis
Страна: США
Производство: Participant Media, Smoke House
Год выпуска: 2015
Жанр: драма, комедия
Продолжительность: 01:47:50
Режиссер: Дэвид Гордон Грин
Авторы сценария: Питер Строхан, Рэйчел Бойнтон
В ролях: Сандра Буллок, Билли Боб Торнтон, Энтони Маки, Жоаким ди Алмейда, Энн Дауд, Скут МакНэри, Зои Казан, Стивен Флорес
Описание: Фильм, основанный на документальных съёмках, покажет изнанку избирательной кампании 2002 года, когда кандидат в президенты Боливии Гонсало Санчес де Лосада нанял политтехнологов из консалтинговой фирмы Greenberg Quinlan Rosner, чтобы прийти к победе...

Перевод: Профессиональный (многоголосый, закадровый) | официальный звук
Субтитры: нет-Качество: BDRip 720p
Формат: МКV
Видео кодек: AVC
Аудио кодек: АС3
Видео: 1280x720 (16:9), 23.976 fps, MPEG-4 AVC ~5 240 kbps avg
Аудио: 48 kHz, AC3 Dolby Digital, 2/0 (L,R) ch, ~384 kbps
Дата премьеры (мир): 11 сентября 2015
ПРИМЕЧАНИЕ: ПРИСУТСТВУЕТ РЕКЛАМА!

Media Info

General
Unique ID : 224486223565369833788383423766978155916 (0xA8E2795880B6890E8F9CAEB5F49CD58C)
Complete name : Our.Brand.Is.Crisis.2015.D.BDRip.72Op_KOSHARA.mkv
Format : Matroska
Format version : Version 2
File size : 4.32 GiB
Duration : 1h 47mn
Overall bit rate mode : Constant
Overall bit rate : 5 738 Kbps
Encoded date : UTC 2016-08-20 21:35:01
Writing application : mkvmerge v8.3.0 ('Over the Horizon') 64bit
Writing library : libebml v1.3.1 + libmatroska v1.4.2
Video #1
ID : 1
Format : AVC
Format/Info : Advanced Video Codec
Format profile : High@L4.1
Format settings, CABAC : Yes
Format settings, ReFrames : 9 frames
Codec ID : V_MPEG4/ISO/AVC
Duration : 1h 47mn
Bit rate mode : Constant
Bit rate : 5 240 Kbps
Nominal bit rate : 5 700 Kbps
Width : 1 280 pixels
Height : 720 pixels
Display aspect ratio : 16:9
Frame rate mode : Constant
Frame rate : 23.976 fps
Standard : Component
Color space : YUV
Chroma subsampling : 4:2:0
Bit depth : 8 bits
Scan type : Progressive
Bits/(Pixel*Frame) : 0.237
Stream size : 3.95 GiB (91%)
Default : Yes
Forced : No
Color range : Limited
Color primaries : BT.709
Transfer characteristics : BT.709
Matrix coefficients : BT.709
Audio #2
ID : 2
Format : AC-3
Format/Info : Audio Coding 3
Mode extension : CM (complete main)
Format settings, Endianness : Big
Codec ID : A_AC3
Duration : 1h 47mn
Bit rate mode : Constant
Bit rate : 384 Kbps
Channel(s) : 2 channels
Channel positions : Front: L R
Sampling rate : 48.0 KHz
Compression mode : Lossy
Stream size : 296 MiB (7%)
Default : Yes
Forced : No

Скриншоты

[Профиль] [ЛС]
Кто просматривает тему:

Показать сообщения:    

Текущее время: Сегодня 18:54

Часовой пояс: GMT



Вы не можете начинать темы
Вы не можете отвечать на сообщения
Вы не можете редактировать свои сообщения
Вы не можете удалять свои сообщения
Вы не можете голосовать в опросах
Вы не можете прикреплять файлы к сообщениям
Вы не можете скачивать файлы