Нашествие / Copperhead (Тодор Чапканов / Todor Chapkanov) [2008, США, ужасы, вестерн, DVDRip] MVO (ТВ3)

 
Автор Сообщение

painkiller ®

Стаж: 2 года 3 месяца

Сообщений: 582



Награды: Нет

Торрент-статистика

Создавать темы 15-Авг-2014 10:16

[Цитировать]

Нашествие / Copperhead
Страна: США
Жанр: ужасы, вестерн
Год выпуска: 2008
Продолжительность: 01:29:12
Перевод: Профессиональный (многоголосый закадровый) ТВ3
Cубтитры: нет
Оригинальная аудиодорожка: нет
Режиссер: Тодор Чапканов / Todor Chapkanov
В ролях: Билли Драго, Брэд Джонсон, Brad Greenquist, Венди Картер, Тодд Дженсен, Nathan Bautista, Ник Харви, Георг Златарев, Кейт Стоун, Гэбриел Вомак, София Летисия Моралес
Описание: Маленький городок на Диком Западе атакует полчище смертоносных медноголовых змей. Прибывший в город загадочный странник Билл и местная танцовщица Джейн оказываются единственными, кто способен встать на пути у кровожадных тварей в попытке спасти напуганных жителей от полного уничтожения...
Качество видео: DVDRip
Формат видео: AVI
Видео: MPEG4, XviD, 624x352 (16/9), 23.976 fps, 954 Kbps (0.181 bit/pixel)
Аудио: MP3, 48.0 KHz, 2 ch, 128 Kbps, CBR

MediaInfo

Общее
Полное имя : K:\Нашествие.avi
Формат : AVI
Формат/Информация : Audio Video Interleave
Размер файла : 696 Мбайт
Продолжительность : 1 ч. 29 м.
Общий поток : 1091 Кбит/сек
Название фильма : Нашествие / Copperhead (2008)
Программа кодирования : VirtualDubMod 1.5.10.2 (build 2540/release)
Библиотека кодирования : VirtualDubMod build 2540/release
Видео
Идентификатор : 0
Формат : MPEG-4 Visual
Профиль формата : Simple@L3
Параметр BVOP формата : 3
Параметр QPel формата : Нет
Параметр GMC формата : Без точки перехода
Параметр матрицы формата : Default (H.263)
Идентификатор кодека : XVID
Идентификатор кодека/Подсказка : XviD
Продолжительность : 1 ч. 29 м.
Битрейт : 954 Кбит/сек
Ширина : 624 пикселя
Высота : 352 пикселя
Соотношение сторон : 16:9
Частота кадров : 23,976 кадра/сек
Цветовое пространство : YUV
Субдискретизация насыщенности : 4:2:0
Битовая глубина : 8 бит
Тип развёртки : Прогрессивная
Метод сжатия : С потерями
Бит/(Пиксели*Кадры) : 0.181
Размер потока : 609 Мбайт (87%)
Библиотека кодирования : XviD 1.0.3 (UTC 2004-12-20)
Аудио
Идентификатор : 1
Формат : MPEG Audio
Версия формата : Version 1
Профиль формата : Layer 3
Режим : Joint stereo
Расширение режима : MS Stereo
Идентификатор кодека : 55
Идентификатор кодека/Подсказка : MP3
Продолжительность : 1 ч. 29 м.
Вид битрейта : Постоянный
Битрейт : 128 Кбит/сек
Каналы : 2 канала
Частота : 48,0 КГц
Метод сжатия : С потерями
Размер потока : 81,7 Мбайт (12%)
Выравнивание : Разделение по промежуткам
Продолжительность промежутка : 42 мс. (1,00 видеокадр)
Время предзагрузки промежутка : 500 мс.
Заголовок : Профессиональный (многоголосый закадровый) ТВ3

Скриншоты


[Профиль] [ЛС]

Создавать темы 06-Авг-2015 23:11 (спустя 11 месяцев 22 дня)

Топик был перенесен из форума Фильмы до 2014 года в форум Фильмы до 2012 года
sergej644
 

Создавать темы 12-Июн-2016 08:51 (спустя 1 год 9 месяцев)

Топик был перенесен из форума Фильмы 2011 года в форум Фильмы 2006-2008 года
Russian Mafia
 
Показать сообщения:    

Текущее время: Сегодня 01:26

Часовой пояс: GMT



Вы не можете начинать темы
Вы не можете отвечать на сообщения
Вы не можете редактировать свои сообщения
Вы не можете удалять свои сообщения
Вы не можете голосовать в опросах
Вы не можете прикреплять файлы к сообщениям
Вы не можете скачивать файлы