Наша марка (Михаил Артёмов) [2013, Документальный цикл, познавательный, HDTV 1080i, RU]

 
Автор Сообщение

TorrentFilm ®

Пол:

Стаж: 2 года

Сообщений: 7741



Награды: Нет

Торрент-статистика

Создавать темы 12-Фев-2015 00:16

[Цитировать]

Наша марка
Год выпуска: 2013
Страна: Россия
Студия: МТРК МИР
Жанр: Документальный цикл, познавательный
Продолжительность: 00:24:07
Перевод: Не требуется
Русские субтитры: нет
Режиссер: Михаил Артёмов
Описание:
«Наша марка» - это своего рода «глянцевый альбом», новый проект телеканала «МИР» о России. В программе рассказывается о предметах, объектах, людях и явлениях, составляющих национальную гордость страны.

01. Пуд воли

Гиря - этот снаряд воспитал волю у многих жителей СССР.
Отлитая из чугуна она безраздельно правила в советском спорте. Ею закалялись олимпийские чемпионы, с ней просыпались целые поколения любителей утренней гимнастики. Однако и сегодня старушку-гирю рано списывать со счетов.

02. Здравствуй, дерево!

Изготовление игрушек из дерева
Сэмпл: http://multi-up.com/1032446
Тип релиза: HDTV 1080i
Контейнер: TS
Видео: AVC, 1920x1080, (16:9), 25 fps, 7.4 Mbps, 0.142 bits/pixel
Аудио: русский MP2, 48 kHz, 2ch, 320 kbps

MediaInfo

GeneralID : 1 (0x1)Complete name : C:\Наша марка_HDTV 1080i_RU_-dean10\01. Пуд воли.tsFormat : MPEG-TSFile size : 1.36 GiBDuration : 24mn 7sOverall bit rate mode : VariableOverall bit rate : 8 084 Kbps
VideoID : 1681 (0x691)Menu ID : 1680 (0x690)Format : AVCFormat/Info : Advanced Video CodecFormat profile : High@L4.0Format settings, CABAC : YesFormat settings, ReFrames : 2 framesCodec ID : 27Duration : 24mn 7sBit rate : 7 361 KbpsWidth : 1 920 pixelsHeight : 1 080 pixelsDisplay aspect ratio : 16:9Frame rate : 25.000 fpsStandard : ComponentColor space : YUVChroma subsampling : 4:2:0Bit depth : 8 bitsScan type : MBAFFScan order : Top Field FirstBits/(Pixel*Frame) : 0.142Stream size : 1.24 GiB (91%)Color primaries : BT.709Transfer characteristics : BT.709Matrix coefficients : BT.709Color range : Limited
AudioID : 1682 (0x692)Menu ID : 1680 (0x690)Format : MPEG AudioFormat version : Version 1Format profile : Layer 2Codec ID : 3Duration : 24mn 7sBit rate mode : ConstantBit rate : 320 KbpsChannel(s) : 2 channelsSampling rate : 48.0 KHzCompression mode : LossyStream size : 55.2 MiB (4%)Language : Russian

Скриншоты

[Профиль] [ЛС]
Кто просматривает тему:

Показать сообщения:    

Текущее время: Сегодня 14:48

Часовой пояс: GMT



Вы не можете начинать темы
Вы не можете отвечать на сообщения
Вы не можете редактировать свои сообщения
Вы не можете удалять свои сообщения
Вы не можете голосовать в опросах
Вы не можете прикреплять файлы к сообщениям
Вы не можете скачивать файлы