Начало / Inception (Кристофер Нолан / Christopher Nolan) [2010, США, Фантастика, боевик, триллер, драма, детектив, BDRip-AVC] Dub + DVO (BBC Saint-Petersburg) + DVO (Кубик в кубе) + AVO (Гаврилов) + AVO (Сербин) + Original (Eng) + Subs (Rus, Eng)

 
Автор Сообщение

TorrentFilm ®

Пол:

Стаж: 2 года

Сообщений: 7741



Награды: Нет

Торрент-статистика

Создавать темы 07-Мар-2016 00:08

[Цитировать]

-Начало / Inception
«Твой разум - место преступления»
- Год выпуска: 2010
Выпущено: США, Великобритания / Warner Bros. Pictures, Legendary Pictures, Syncopy
Жанр: фантастика, боевик, триллер, драма, детектив
Продолжительность: 02:28:07
Перевод (1): Профессиональный (полное дублирование)
Перевод (2): Профессиональный (двухголосый закадровый) BBC Saint-Petersburg
Перевод (3): Профессиональный (двухголосый закадровый) «Кубик в кубе»
Перевод (4): Авторский (одноголосый закадровый) Андрей Гаврилов
Перевод (5): Авторский (одноголосый закадровый) Юрий Сербин
Оригинальная аудиодорожка: Английская
Cубтитры: Русские (полные + форсированные + SDH (Voronine)), Английские (полные, SDH)
Навигация по главам: Есть (15 глав)-Режиссер:
Кристофер Нолан / Christopher Nolan-В ролях:
Леонардо ДиКаприо (Cobb), Джозеф Гордон-Левитт (Arthur), Эллен Пейдж (Ariadne), Том Харди (Eames), Кен Ватанабе (Saito), Дилип Рао (Yusuf), Киллиан Мёрфи (Robert Fischer), Том Беренджер (Peter Browning), Марион Котийяр (Mal), Пит Постлетуэйт (Maurice Fischer), Майкл Кейн (Miles), Лукас Хаас (Nash)-Описание:
Кобб — талантливый вор, лучший из лучших в опасном искусстве извлечения: он крадет ценные секреты из глубин подсознания во время сна, когда человеческий разум наиболее уязвим. Редкие способности Кобба сделали его ценным игроком в привычном к предательству мире промышленного шпионажа, но они же превратили его в извечного беглеца и лишили всего, что он когда-либо любил.
И вот у Кобба появляется шанс исправить ошибки. Его последнее дело может вернуть все назад, но для этого ему нужно совершить невозможное — инициацию. Вместо идеальной кражи Кобб и его команда спецов должны будут провернуть обратное. Теперь их задача — не украсть идею, а внедрить ее. Если у них получится, это и станет идеальным преступлением.
Но никакое планирование или мастерство не могут подготовить команду к встрече с опасным противником, который, кажется, предугадывает каждый их ход. Врагом, увидеть которого мог бы лишь Кобб.
-Релиз групп | | IMDB | КиноПоиск | Сэмпл |-Качество: BDRip [BDRemux]
Формат: MKV
Видео: 1152x480 (2.40:1), 23.976 fps, x264 ~2768 kbps avg, 0.209 bit/pixel
Аудио #1: 48 kHz, AC3 Dolby Digital, 3/2 (L,C,R,l,r) + LFE ch, ~448.00 kbps avg (DUB)
Аудио #2: 48 kHz, AC3 Dolby Digital, 3/2 (L,C,R,l,r) + LFE ch, ~448.00 kbps avg (DVO) BBC Saint-Petersburg
Аудио #3: 48 kHz, AC3 Dolby Digital, 3/2 (L,C,R,l,r) + LFE ch, ~448.00 kbps avg (ENG)
Аудио #4: 48 kHz, AC3 Dolby Digital, 3/2 (L,C,R,l,r) + LFE ch, ~448.00 kbps avg (DVO) «Кубик в кубе» отдельно
Аудио #5: 48 kHz, AC3 Dolby Digital, 3/2 (L,C,R,l,r) + LFE ch, ~448.00 kbps avg (AVO) Андрей Гаврилов отдельно
Аудио #6: 48 kHz, AC3 Dolby Digital, 3/2 (L,C,R,l,r) + LFE ch, ~448.00 kbps avg (AVO) Юрий Сербин отдельно
-

Скриншоты

--

MediaInfo

General
Complete name                            : D:\Nachalo_2010_BDRip-AVC_by_Dalemake.mkv
Format                                   : Matroska
Format version                           : Version 4 / Version 2
File size                                : 4.26 GiB
Duration                                 : 2h 28mn
Overall bit rate                         : 4 115 Kbps
Encoded date                             : UTC 2016-03-05 19:59:02
Writing application                      : mkvmerge v7.8.0 ('River Man') 32bit built on Apr  3 2015 12:11:22
Writing library                          : libebml v1.3.1 + libmatroska v1.4.2
Video
ID                                       : 1
Format                                   : AVC
Format/Info                              : Advanced Video Codec
Format profile                           : High@L4.1
Format settings, CABAC                   : Yes
Format settings, ReFrames                : 15 frames
Codec ID                                 : V_MPEG4/ISO/AVC
Duration                                 : 2h 28mn
Bit rate                                 : 2 768 Kbps
Width                                    : 1 152 pixels
Height                                   : 480 pixels
Display aspect ratio                     : 2.40:1
Frame rate mode                          : Constant
Frame rate                               : 23.976 (24000/1001) fps
Color space                              : YUV
Chroma subsampling                       : 4:2:0
Bit depth                                : 8 bits
Scan type                                : Progressive
Bits/(Pixel*Frame)                       : 0.209
Stream size                              : 2.86 GiB (67%)
Writing library                          : x264 core 146 r2538 121396c
Encoding settings                        : cabac=1 / ref=15 / deblock=1:1:-1 / analyse=0x3:0x113 / me=umh / subme=11 / psy=1 / psy_rd=1.00:0.00 / mixed_ref=1 / me_range=48 / chroma_me=1 / trellis=2 / 8x8dct=1 / cqm=0 / deadzone=21,11 / fast_pskip=0 / chroma_qp_offset=-2 / threads=6 / lookahead_threads=1 / sliced_threads=0 / nr=0 / decimate=0 / interlaced=0 / bluray_compat=0 / constrained_intra=0 / bframes=14 / b_pyramid=2 / b_adapt=2 / b_bias=0 / direct=3 / weightb=1 / open_gop=0 / weightp=2 / keyint=250 / keyint_min=23 / scenecut=40 / intra_refresh=0 / rc_lookahead=60 / rc=crf / mbtree=1 / crf=16.0 / qcomp=0.60 / qpmin=0 / qpmax=69 / qpstep=4 / vbv_maxrate=50000 / vbv_bufsize=62500 / crf_max=0.0 / nal_hrd=none / filler=0 / ip_ratio=1.40 / aq=1:1.00
Default                                  : Yes
Forced                                   : No
Audio #1
ID                                       : 2
Format                                   : AC-3
Format/Info                              : Audio Coding 3
Mode extension                           : CM (complete main)
Format settings, Endianness              : Big
Codec ID                                 : A_AC3
Duration                                 : 2h 28mn
Bit rate mode                            : Constant
Bit rate                                 : 448 Kbps
Channel(s)                               : 6 channels
Channel positions                        : Front: L C R, Side: L R, LFE
Sampling rate                            : 48.0 KHz
Frame rate                               : 31.250 fps (1536 spf)
Compression mode                         : Lossy
Stream size                              : 475 MiB (11%)
Title                                    : Dub
Language                                 : Russian
Default                                  : Yes
Forced                                   : No
Audio #2
ID                                       : 3
Format                                   : AC-3
Format/Info                              : Audio Coding 3
Mode extension                           : CM (complete main)
Format settings, Endianness              : Big
Codec ID                                 : A_AC3
Duration                                 : 2h 28mn
Bit rate mode                            : Constant
Bit rate                                 : 448 Kbps
Channel(s)                               : 6 channels
Channel positions                        : Front: L C R, Side: L R, LFE
Sampling rate                            : 48.0 KHz
Frame rate                               : 31.250 fps (1536 spf)
Compression mode                         : Lossy
Stream size                              : 475 MiB (11%)
Title                                    : MVO-BBC Saint-Petersburg
Language                                 : Russian
Default                                  : No
Forced                                   : No
Audio #3
ID                                       : 4
Format                                   : AC-3
Format/Info                              : Audio Coding 3
Mode extension                           : CM (complete main)
Format settings, Endianness              : Big
Codec ID                                 : A_AC3
Duration                                 : 2h 28mn
Bit rate mode                            : Constant
Bit rate                                 : 448 Kbps
Channel(s)                               : 6 channels
Channel positions                        : Front: L C R, Side: L R, LFE
Sampling rate                            : 48.0 KHz
Frame rate                               : 31.250 fps (1536 spf)
Compression mode                         : Lossy
Stream size                              : 475 MiB (11%)
Title                                    : Original
Language                                 : English
Default                                  : No
Forced                                   : No
Text #1
ID                                       : 5
Format                                   : UTF-8
Codec ID                                 : S_TEXT/UTF8
Codec ID/Info                            : UTF-8 Plain Text
Duration                                 : 2h 9mn
Bit rate                                 : 0 bps
Count of elements                        : 12
Stream size                              : 480 Bytes (0%)
Title                                    : Forced
Language                                 : Russian
Default                                  : Yes
Forced                                   : No
Text #2
ID                                       : 6
Format                                   : UTF-8
Codec ID                                 : S_TEXT/UTF8
Codec ID/Info                            : UTF-8 Plain Text
Duration                                 : 2h 19mn
Bit rate                                 : 99 bps
Count of elements                        : 1540
Stream size                              : 101 KiB (0%)
Title                                    : Full (Voronine)
Language                                 : Russian
Default                                  : No
Forced                                   : No
Text #3
ID                                       : 7
Format                                   : UTF-8
Codec ID                                 : S_TEXT/UTF8
Codec ID/Info                            : UTF-8 Plain Text
Duration                                 : 2h 20mn
Bit rate                                 : 103 bps
Count of elements                        : 1687
Stream size                              : 106 KiB (0%)
Title                                    : Full-SDH (Voronine)
Language                                 : Russian
Default                                  : No
Forced                                   : No
Text #4
ID                                       : 8
Format                                   : UTF-8
Codec ID                                 : S_TEXT/UTF8
Codec ID/Info                            : UTF-8 Plain Text
Duration                                 : 2h 18mn
Bit rate                                 : 59 bps
Count of elements                        : 1580
Stream size                              : 60.8 KiB (0%)
Title                                    : Full
Language                                 : English
Default                                  : No
Forced                                   : No
Text #5
ID                                       : 9
Format                                   : UTF-8
Codec ID                                 : S_TEXT/UTF8
Codec ID/Info                            : UTF-8 Plain Text
Duration                                 : 2h 19mn
Bit rate                                 : 62 bps
Count of elements                        : 1737
Stream size                              : 64.2 KiB (0%)
Title                                    : Full-SDH
Language                                 : English
Default                                  : No
Forced                                   : No
Menu
00:00:00.000                             : en:Scene 1
00:11:41.743                             : en:Scene 2
00:21:37.338                             : en:Scene 3
00:31:20.337                             : en:Scene 4
00:41:22.230                             : en:Scene 5
00:51:13.737                             : en:Scene 6
01:01:21.553                             : en:Scene 7
01:10:29.684                             : en:Scene 8
01:22:15.597                             : en:Scene 9
01:31:52.590                             : en:Scene 10
01:40:38.532                             : en:Scene 11
01:51:22.175                             : en:Scene 12
02:00:54.414                             : en:Scene 13
02:10:09.051                             : en:Scene 14
02:20:55.447                             : en:Scene 15

x264 log

x264 [info]: using SAR=1/1
x264 [info]: using cpu capabilities: MMX2 SSE2Fast SSSE3 SSE4.2 AVX
x264 [info]: profile High, level 4.1
x264 [info]: frame I:1870  Avg QP:12.41  size: 91514
x264 [info]: frame P:42088 Avg QP:16.91  size: 29507
x264 [info]: frame B:169138 Avg QP:19.10  size:  9829
x264 [info]: consecutive B-frames:  1.7%  1.9%  5.2% 19.0% 13.9% 38.0%  6.2%  5.3%  2.0%  2.1%  0.7%  1.9%  0.6%  0.7%  0.6%
x264 [info]: mb I  I16..4:  5.9% 76.2% 17.9%
x264 [info]: mb P  I16..4:  1.2% 11.2%  1.5%  P16..4: 31.4% 37.9% 12.1%  0.0%  0.0%    skip: 4.8%
x264 [info]: mb B  I16..4:  0.1%  1.5%  0.2%  B16..8: 38.8% 22.2%  3.3%  direct: 4.4%  skip:29.6%  L0:45.1% L1:45.4% BI: 9.4%
x264 [info]: 8x8 transform intra:81.5% inter:59.3%
x264 [info]: direct mvs  spatial:100.0% temporal:0.0%
x264 [info]: coded y,uvDC,uvAC intra: 90.4% 73.7% 44.9% inter: 26.7% 13.3% 4.9%
x264 [info]: i16 v,h,dc,p: 54%  9%  6% 32%
x264 [info]: i8 v,h,dc,ddl,ddr,vr,hd,vl,hu:  9%  8%  6% 10% 15% 14% 14% 12% 13%
x264 [info]: i4 v,h,dc,ddl,ddr,vr,hd,vl,hu: 10%  8%  5%  9% 16% 14% 14% 11% 13%
x264 [info]: i8c dc,h,v,p: 35% 30% 20% 15%
x264 [info]: Weighted P-Frames: Y:5.4% UV:1.8%
x264 [info]: ref P L0: 45.2%  8.8% 17.9%  6.9%  5.5%  3.7%  3.2%  1.7%  1.5%  1.2%  1.1%  0.9%  0.9%  0.7%  0.8%  0.1%
x264 [info]: ref B L0: 73.2% 12.0%  5.5%  2.7%  1.8%  1.4%  1.0%  0.6%  0.5%  0.4%  0.3%  0.3%  0.2%  0.1%
x264 [info]: ref B L1: 92.2%  7.8%
-
[Профиль] [ЛС]

Создавать темы 12-Июн-2016 07:53 (спустя 3 месяца 5 дней)

Топик был перенесен из форума Фильмы 2011 года в форум Фильмы 2010 года
Russian Mafia
 
Показать сообщения:    

Текущее время: Сегодня 18:46

Часовой пояс: GMT



Вы не можете начинать темы
Вы не можете отвечать на сообщения
Вы не можете редактировать свои сообщения
Вы не можете удалять свои сообщения
Вы не можете голосовать в опросах
Вы не можете прикреплять файлы к сообщениям
Вы не можете скачивать файлы