Начало / Inception (Кристофер Нолан / Christopher Nolan) [2010 г., США, Великобритания, фантастика, боевик, триллер, драма, детектив, HDRip-AVC] Dub + Sub (Rus)

 
Автор Сообщение

TorrentFilm ®

Пол:

Стаж: 2 года

Сообщений: 7741



Награды: Нет

Торрент-статистика

Создавать темы 04-Авг-2015 00:06

[Цитировать]

-Начало / Inception--Год выпуска: 2010Страна: США, ВеликобританияЖанр: фантастика, боевик, триллер, драма, детектив-Продолжительность: 02:28:08Перевод: Профессиональный (дублированный) [лицензия]Оригинальная аудиодорожка: нетСубтитры: русские (форсированные, полные - 3 вида) [.srt]--Режиссер:Кристофер Нолан / Christopher Nolan-В ролях:Леонардо ДиКаприо, Эллен Пейдж, Том Харди, Джозеф Гордон-Левитт, Марион Котийяр, Кен Ватанабе, Киллиан Мёрфи, Дилип Рао, Том Беренджер, Майкл Кейн-Описание:
Кобб — талантливый вор, лучший из лучших в опасном искусстве извлечения: он крадет ценные секреты из глубин подсознания во время сна, когда человеческий разум наиболее уязвим. Редкие способности Кобба сделали его ценным игроком в привычном к предательству мире промышленного шпионажа, но они же превратили его в извечного беглеца и лишили всего, что он когда-либо любил.
И вот у Кобба появляется шанс исправить ошибки. Его последнее дело может вернуть все назад, но для этого ему нужно совершить невозможное — инициацию. Вместо идеальной кражи Кобб и его команда спецов должны будут провернуть обратное. Теперь их задача — не украсть идею, а внедрить ее. Если у них получится, это и станет идеальным преступлением.
Но никакое планирование или мастерство не могут подготовить команду к встрече с опасным противником, который, кажется, предугадывает каждый их ход. Врагом, увидеть которого мог бы лишь Кобб.
--Дополнительная информация:- -Сэмпл Рип НЕ совместим с бытовыми DVD-проигрывателями.--Качество видео: HDRip-AVC (Исходник: BDRip 1080p)
Формат видео: MKV
Видео: AVC (x264), 980x408 (2.39:1), 23.976 fps, ~1722 kbps avg, 0.180 bit/pixel
Аудио: 48 kHz, AC3 Dolby Digital, 3/2 (L,C,R,l,r) + LFE ch, 384 kbps (Дубляж)
Главы: есть-

MediaInfo/loglog

x264 [info]: frame I:1899 Avg QP:15.29 size: 51427
x264 [info]: frame P:43662 Avg QP:18.37 size: 18373
x264 [info]: frame B:167537 Avg QP:19.17 size: 6049
x264 [info]: consecutive B-frames: 1.8% 2.0% 5.9% 22.0% 13.5% 38.9% 4.8% 6.4% 1.6% 0.9% 0.3% 0.5% 0.3% 0.2% 0.1% 0.2% 0.5%
x264 [info]: mb I I16..4: 6.7% 75.1% 18.2%
x264 [info]: mb P I16..4: 1.1% 14.0% 2.1% P16..4: 29.0% 35.7% 12.1% 0.0% 0.0% skip: 6.0%
x264 [info]: mb B I16..4: 0.2% 1.5% 0.3% B16..8: 36.2% 23.1% 3.6% direct: 4.4% skip:30.8% L0:43.2% L1:45.5% BI:11.4%
x264 [info]: 8x8 transform intra:79.4% inter:58.3%
x264 [info]: direct mvs spatial:99.5% temporal:0.5%
x264 [info]: coded y,uvDC,uvAC intra: 86.0% 72.6% 45.4% inter: 22.9% 13.3% 5.1%
x264 [info]: i16 v,h,dc,p: 43% 13% 9% 35%
x264 [info]: i8 v,h,dc,ddl,ddr,vr,hd,vl,hu: 13% 9% 9% 9% 12% 12% 12% 11% 12%
x264 [info]: i4 v,h,dc,ddl,ddr,vr,hd,vl,hu: 14% 18% 6% 7% 12% 12% 11% 9% 11%
x264 [info]: i8c dc,h,v,p: 34% 32% 21% 13%
x264 [info]: Weighted P-Frames: Y:5.7% UV:1.8%
x264 [info]: ref P L0: 51.2% 6.9% 15.5% 7.3% 5.3% 3.9% 3.0% 1.7% 1.4% 1.2% 1.0% 0.8% 0.7% 0.1% 0.0%
x264 [info]: ref B L0: 73.7% 12.5% 5.4% 2.6% 1.8% 1.3% 1.0% 0.6% 0.5% 0.4% 0.2% 0.1%
x264 [info]: ref B L1: 92.6% 7.4%
x264 [info]: kb/s:1722.23
General
Unique ID : 189170788588896378052079333140431062260 (0x8E50F7F871169A9094648FD43EDF44F4)
Complete name : \Nachalo_(2010).HDRip-AVC.ac3.Dub.Sub_[All.Films][RG].mkv
Format : Matroska
Format version : Version 2
File size : 2.18 GiB
Duration : 2h 28mn
Overall bit rate : 2 108 Kbps
Movie name : Начало / Inception (2010) HDRip-AVC | [All.Films][RG][torrentfilm.net]
Encoded date : UTC 2015-08-02 00:50:12
Writing application : mkvmerge v7.8.0 ('River Man') 32bit built on Apr 3 2015 12:11:22
Writing library : libebml v1.3.1 + libmatroska v1.4.2
Video
ID : 1
Format : AVC
Format/Info : Advanced Video Codec
Format profile : High@L4.1
Format settings, CABAC : Yes
Format settings, ReFrames : 13 frames
Codec ID : V_MPEG4/ISO/AVC
Duration : 2h 28mn
Bit rate : 1 723 Kbps
Width : 980 pixels
Height : 408 pixels
Display aspect ratio : 2.40:1
Frame rate mode : Constant
Frame rate : 23.976 fps
Color space : YUV
Chroma subsampling : 4:2:0
Bit depth : 8 bits
Scan type : Progressive
Bits/(Pixel*Frame) : 0.180
Stream size : 1.74 GiB (80%)
Writing library : x264 core 146 r2538kMod 121396c
Encoding settings : cabac=1 / ref=13 / deblock=1:-2:-1 / analyse=0x3:0x113 / me=umh / subme=11 / psy=1 / fade_compensate=0.00 / psy_rd=1.00:0.05 / mixed_ref=1 / me_range=36 / chroma_me=1 / trellis=2 / 8x8dct=1 / cqm=0 / deadzone=21,11 / fast_pskip=0 / chroma_qp_offset=-3 / threads=6 / lookahead_threads=1 / sliced_threads=0 / nr=0 / decimate=0 / interlaced=0 / bluray_compat=0 / constrained_intra=0 / fgo=0 / bframes=16 / b_pyramid=2 / b_adapt=2 / b_bias=0 / direct=3 / weightb=1 / open_gop=0 / weightp=2 / keyint=240 / keyint_min=23 / scenecut=40 / intra_refresh=0 / rc_lookahead=60 / rc=2pass / mbtree=0 / bitrate=1723 / ratetol=1.0 / qcomp=0.60 / qpmin=10 / qpmax=51 / qpstep=4 / cplxblur=20.0 / qblur=0.5 / vbv_maxrate=50000 / vbv_bufsize=62500 / nal_hrd=none / filler=0 / ip_ratio=1.40 / pb_ratio=1.30 / aq=3:1.00 / zones=205600,213098,q=30
Default : Yes
Forced : No
Audio
ID : 2
Format : AC-3
Format/Info : Audio Coding 3
Mode extension : CM (complete main)
Format settings, Endianness : Big
Codec ID : A_AC3
Duration : 2h 28mn
Bit rate mode : Constant
Bit rate : 384 Kbps
Channel(s) : 6 channels
Channel positions : Front: L C R, Side: L R, LFE
Sampling rate : 48.0 KHz
Compression mode : Lossy
Stream size : 407 MiB (18%)
Title : Дубляж
Language : Russian
Default : Yes
Forced : No
Text #1
ID : 3
Format : UTF-8
Codec ID : S_TEXT/UTF8
Codec ID/Info : UTF-8 Plain Text
Title : Force
Language : Russian
Default : Yes
Forced : Yes
Text #2
ID : 4
Format : UTF-8
Codec ID : S_TEXT/UTF8
Codec ID/Info : UTF-8 Plain Text
Title : BD
Language : Russian
Default : No
Forced : No
Text #3
ID : 5
Format : UTF-8
Codec ID : S_TEXT/UTF8
Codec ID/Info : UTF-8 Plain Text
Title : VORONINE
Language : Russian
Default : No
Forced : No
Text #4
ID : 6
Format : UTF-8
Codec ID : S_TEXT/UTF8
Codec ID/Info : UTF-8 Plain Text
Title : VORONINE SDH
Language : Russian
Default : No
Forced : No
Menu
00:00:00.000 : en:Washed Ashore
00:11:41.742 : en:Dream On A Train
00:21:37.337 : en:A Paris Architect
00:31:20.336 : en:Bilding Within A Dream
00:41:22.229 : en:Seeking A Chemist
00:51:13.737 : en:The Plan
01:01:21.552 : en:Boarding The Plane
01:10:29.683 : en:Kidnapping
01:22:15.597 : en:The Safe's Combination
01:31:52.590 : en:A Deeper Dream
01:40:38.532 : en:The Ski Dream
01:51:22.175 : en:Mal's Here
02:00:54.413 : en:Our Children
02:10:09.051 : en:The Kick
02:20:55.446 : en:End CreditsFAQ по просмотру MKV/h.264/AAC
[Профиль] [ЛС]

Создавать темы 06-Авг-2015 22:23 (спустя 2 дня 22 часа)

Топик был перенесен из форума Фильмы до 2014 года в форум Фильмы до 2012 года
sergej644
 

Создавать темы 12-Июн-2016 07:55 (спустя 10 месяцев 8 дней)

Топик был перенесен из форума Фильмы 2011 года в форум Фильмы 2010 года
Russian Mafia
 
Показать сообщения:    

Текущее время: Сегодня 14:53

Часовой пояс: GMT



Вы не можете начинать темы
Вы не можете отвечать на сообщения
Вы не можете редактировать свои сообщения
Вы не можете удалять свои сообщения
Вы не можете голосовать в опросах
Вы не можете прикреплять файлы к сообщениям
Вы не можете скачивать файлы