Начало (Глеб Панфилов) [1970, СССР, Психологическая драма, DVD5] [Крупный план, без реставрации]

 
Автор Сообщение

TorrentFilm ®

Пол:

Стаж: 1 год 11 месяцев

Сообщений: 7741



Награды: Нет

Торрент-статистика

Создавать темы 11-Июл-2015 00:08

[Цитировать]

Начало
Страна: СССР
Студия: Ленфильм
Жанр: Психологическая драма
Год выпуска: 1970
Продолжительность: 01:26:08
Режиссер: Глеб Панфилов
В ролях: Инна Чурикова, Валентина Теличкина,
Татьяна Степанова, Леонид Куравлёв, Михаил Кононов,
Нина Скоморохова, Татьяна Бедова, Юрий Клепиков,
Геннадий Беглов, Юрий Визбор и др.
Описание: Девушка из провинциального русского городка мечтает
стать актрисой, а пока самозабвенно играет Бабу Ягу в городском
клубе. Вот там-то и находит ее режиссёр, который намерен снять фильм
о Жанне д`Арк. Сбывается мечта: ее приглашают на главную роль,
и у нее начинается совсем другая жизнь, полная настоящих
творческих мук и озарений...
Меню: Анимированное озвученное
Издатель диска: Крупный план.
Синяя серия. Без реставрации. Отечественное кино ХХ века.
Тип релиза: DVD5
Контейнер: DVD-Video
Видео кодек: MPEG-2
Аудио кодек: AC-3
Видео: PAL 16:9 (720x576) СBR, 5500 kbps
Аудио: Russian (Dolby AC3, 2 ch) CBR 192 kbps, Front: L R, 48.0 KHz 16 bits

DVDInfo

Title: Nachalo_1970_DVD5_[torrentfilm.net]Size: 3.58 Gb ( 3 754 800,00 KBytes ) - DVD-5Enabled regions: 1, 2, 3, 4, 5, 6, 7, 8
VTS_01 : Play Length: 00:00:40 Video: PAL 4:3 (720x576) VBR
VTS_02 : Play Length: 01:26:08 Video: PAL 16:9 (720x576) VBR, Auto Letterboxed Audio: English (Dolby AC3, 2 ch)
* Menus Information *
VIDEO_TS MenuVideo: PAL 16:9 (720x576) VBR Auto Pan&Scan, Auto LetterboxedEnglish Language Unit : Title Menu
VTS_01 MenuVideo: PAL 16:9 (720x576) VBR Auto LetterboxedAudio: Not specified (Dolby AC3, 2 ch)English Language Unit : Root Menu Chapter (PTT) Menu
VTS_02 MenuVideo: PAL 4:3 (720x576) VBREnglish Language Unit : Root Menu

MediaInfo

ОбщееПолное имя : E:\Nachalo_1970_DVD5_[torrentfilm.net]\VIDEO_TS\VIDEO_TS.BUPФормат : DVD VideoПрофиль формата : MenuРазмер файла : 10,0 КбайтРежим общего битрейта : Переменный
ВидеоИдентификатор : 224 (0xE0)Формат : MPEG VideoВерсия формата : Version 2Вид битрейта : ПеременныйШирина : 720 пикселейВысота : 576 пикселейСоотношение сторон : 16:9Частота кадров : 25,000 кадров/секСтандарт вещания : PALМетод сжатия : С потерями
ОбщееПолное имя : E:\Nachalo_1970_DVD5_[torrentfilm.net]\VIDEO_TS\VIDEO_TS.IFOФормат : DVD VideoПрофиль формата : MenuРазмер файла : 10,0 КбайтРежим общего битрейта : Переменный
ВидеоИдентификатор : 224 (0xE0)Формат : MPEG VideoВерсия формата : Version 2Вид битрейта : ПеременныйШирина : 720 пикселейВысота : 576 пикселейСоотношение сторон : 16:9Частота кадров : 25,000 кадров/секСтандарт вещания : PALМетод сжатия : С потерями
ОбщееПолное имя : E:\Nachalo_1970_DVD5_[torrentfilm.net]\VIDEO_TS\VTS_01_0.BUPФормат : DVD VideoПрофиль формата : ProgramРазмер файла : 22,0 КбайтПродолжительность : 40 с.Режим общего битрейта : ПеременныйОбщий поток : 4430 бит/сек
ВидеоИдентификатор : 224 (0xE0)Формат : MPEG VideoВерсия формата : Version 2Продолжительность : 40 с.Вид битрейта : ПеременныйШирина : 720 пикселейВысота : 576 пикселейСоотношение сторон : 4:3Частота кадров : 25,000 кадров/секСтандарт вещания : PALМетод сжатия : С потерями
МенюПродолжительность : 40 с.00:00:00.000 : Chapter 1
ОбщееПолное имя : E:\Nachalo_1970_DVD5_[torrentfilm.net]\VIDEO_TS\VTS_01_0.IFOФормат : DVD VideoПрофиль формата : ProgramРазмер файла : 22,0 КбайтПродолжительность : 40 с.Режим общего битрейта : ПеременныйОбщий поток : 4430 бит/сек
ВидеоИдентификатор : 224 (0xE0)Формат : MPEG VideoВерсия формата : Version 2Продолжительность : 40 с.Вид битрейта : ПеременныйШирина : 720 пикселейВысота : 576 пикселейСоотношение сторон : 4:3Частота кадров : 25,000 кадров/секСтандарт вещания : PALМетод сжатия : С потерями
МенюПродолжительность : 40 с.00:00:00.000 : Chapter 1
ОбщееПолное имя : E:\Nachalo_1970_DVD5_[torrentfilm.net]\VIDEO_TS\VTS_01_0.VOBФормат : MPEG-PSРазмер файла : 68,0 МбайтПродолжительность : 19 с.Общий поток : 29,0 Мбит/сек
ВидеоИдентификатор : 224 (0xE0)Формат : MPEG VideoВерсия формата : Version 2Профиль формата : Main@MainПараметр BVOP формата : ДаПараметр матрицы формата : ВыборочнаяПараметр GOP формата : M=3, N=15Продолжительность : 19 с.Битрейт : 28,2 Мбит/секМаксимальный битрейт : 5500 Кбит/секШирина : 720 пикселейВысота : 576 пикселейСоотношение сторон : 4:3Частота кадров : 25,000 кадров/секСтандарт вещания : PALЦветовое пространство : YUVСубдискретизация насыщенности : 4:2:0Битовая глубина : 8 битТип развёртки : ЧересстрочнаяПорядок развёртки : Верхнее поле первоеМетод сжатия : С потерямиБит/(Пиксели*Кадры) : 2.724Временной код первого кадра : 00:00:00:01Оригинал временного кода : Group of pictures headerРазмер потока : 66,0 Мбайт (97%)
АудиоИдентификатор : 189 (0xBD)-128 (0x80)Формат : AC-3Формат/Информация : Audio Coding 3Расширение режима : CM (complete main)Параметр Endianness формата : BigРежим смешивания : DVD-VideoПродолжительность : 19 с.Вид битрейта : ПостоянныйБитрейт : 192 Кбит/секКаналы : 2 каналаРасположение каналов : Front: L RЧастота : 48,0 КГцБитовая глубина : 16 битМетод сжатия : С потерямиЗадержка видео : -80 мс.Размер потока : 461 Кбайт (1%)
Текст #1Идентификатор : 189 (0xBD)-32 (0x20)Формат : RLEФормат/Информация : Run-length encodingРежим смешивания : DVD-VideoЗадержка видео : -80 мс.
Текст #2Идентификатор : 189 (0xBD)-33 (0x21)Формат : RLEФормат/Информация : Run-length encodingРежим смешивания : DVD-VideoЗадержка видео : -80 мс.
Меню
ОбщееПолное имя : E:\Nachalo_1970_DVD5_[torrentfilm.net]\VIDEO_TS\VTS_01_1.VOBФормат : MPEG-PSРазмер файла : 27,1 МбайтПродолжительность : 40 с.Общий поток : 5607 Кбит/сек
ВидеоИдентификатор : 224 (0xE0)Формат : MPEG VideoВерсия формата : Version 2Профиль формата : Main@MainПараметр BVOP формата : ДаПараметр матрицы формата : ВыборочнаяПараметр GOP формата : M=3, N=15Продолжительность : 40 с.Битрейт : 5500 Кбит/секШирина : 720 пикселейВысота : 576 пикселейСоотношение сторон : 4:3Частота кадров : 25,000 кадров/секСтандарт вещания : PALЦветовое пространство : YUVСубдискретизация насыщенности : 4:2:0Битовая глубина : 8 битТип развёртки : ЧересстрочнаяПорядок развёртки : Верхнее поле первоеМетод сжатия : С потерямиБит/(Пиксели*Кадры) : 0.530Временной код первого кадра : 00:00:00:01Оригинал временного кода : Group of pictures headerРазмер потока : 26,6 Мбайт (98%)
Меню
ОбщееПолное имя : E:\Nachalo_1970_DVD5_[torrentfilm.net]\VIDEO_TS\VTS_02_0.BUPФормат : DVD VideoПрофиль формата : ProgramРазмер файла : 52,0 КбайтПродолжительность : 1 ч. 26 м.Режим общего битрейта : ПеременныйОбщий поток : 82 бит/сек
ВидеоИдентификатор : 224 (0xE0)Формат : MPEG VideoВерсия формата : Version 2Продолжительность : 1 ч. 26 м.Вид битрейта : ПеременныйШирина : 720 пикселейВысота : 576 пикселейСоотношение сторон : 16:9Частота кадров : 25,000 кадров/секСтандарт вещания : PALМетод сжатия : С потерями
АудиоИдентификатор : 128 (0x80)Формат : AC-3Формат/Информация : Audio Coding 3Продолжительность : 1 ч. 26 м.Каналы : 2 каналаЧастота : 48,0 КГцМетод сжатия : С потерямиЯзык : English
МенюПродолжительность : 1 ч. 26 м.00:00:00.000 : Chapter 100:07:07.200 : Chapter 200:13:59.400 : Chapter 300:18:39.600 : Chapter 400:24:21.000 : Chapter 500:31:00.600 : Chapter 600:36:09.600 : Chapter 700:41:58.800 : Chapter 800:49:10.800 : Chapter 900:57:04.800 : Chapter 1001:05:31.800 : Chapter 1101:10:04.200 : Chapter 1201:13:19.200 : Chapter 1301:18:33.000 : Chapter 14List (Audio) : 0
ОбщееПолное имя : E:\Nachalo_1970_DVD5_[torrentfilm.net]\VIDEO_TS\VTS_02_0.IFOФормат : DVD VideoПрофиль формата : ProgramРазмер файла : 52,0 КбайтПродолжительность : 1 ч. 26 м.Режим общего битрейта : ПеременныйОбщий поток : 82 бит/сек
ВидеоИдентификатор : 224 (0xE0)Формат : MPEG VideoВерсия формата : Version 2Продолжительность : 1 ч. 26 м.Вид битрейта : ПеременныйШирина : 720 пикселейВысота : 576 пикселейСоотношение сторон : 16:9Частота кадров : 25,000 кадров/секСтандарт вещания : PALМетод сжатия : С потерями
АудиоИдентификатор : 128 (0x80)Формат : AC-3Формат/Информация : Audio Coding 3Продолжительность : 1 ч. 26 м.Каналы : 2 каналаЧастота : 48,0 КГцМетод сжатия : С потерямиЯзык : English
МенюПродолжительность : 1 ч. 26 м.00:00:00.000 : Chapter 100:07:07.200 : Chapter 200:13:59.400 : Chapter 300:18:39.600 : Chapter 400:24:21.000 : Chapter 500:31:00.600 : Chapter 600:36:09.600 : Chapter 700:41:58.800 : Chapter 800:49:10.800 : Chapter 900:57:04.800 : Chapter 1001:05:31.800 : Chapter 1101:10:04.200 : Chapter 1201:13:19.200 : Chapter 1301:18:33.000 : Chapter 14List (Audio) : 0
ОбщееПолное имя : E:\Nachalo_1970_DVD5_[torrentfilm.net]\VIDEO_TS\VTS_02_1.VOBФормат : MPEG-PSРазмер файла : 1024 МбайтПродолжительность : 24 м.Общий поток : 5795 Кбит/сек
ВидеоИдентификатор : 224 (0xE0)Формат : MPEG VideoВерсия формата : Version 2Профиль формата : Main@MainПараметр BVOP формата : ДаПараметр матрицы формата : ВыборочнаяПараметр GOP формата : M=3, N=15Продолжительность : 24 м.Битрейт : 5500 Кбит/секШирина : 720 пикселейВысота : 576 пикселейСоотношение сторон : 4:3Частота кадров : 25,000 кадров/секСтандарт вещания : PALЦветовое пространство : YUVСубдискретизация насыщенности : 4:2:0Битовая глубина : 8 битТип развёртки : ЧересстрочнаяПорядок развёртки : Верхнее поле первоеМетод сжатия : С потерямиБит/(Пиксели*Кадры) : 0.530Временной код первого кадра : 00:00:00:01Оригинал временного кода : Group of pictures headerРазмер потока : 970 Мбайт (95%)
АудиоИдентификатор : 189 (0xBD)-128 (0x80)Формат : AC-3Формат/Информация : Audio Coding 3Расширение режима : CM (complete main)Параметр Endianness формата : BigРежим смешивания : DVD-VideoПродолжительность : 24 м.Вид битрейта : ПостоянныйБитрейт : 192 Кбит/секКаналы : 2 каналаРасположение каналов : Front: L RЧастота : 48,0 КГцБитовая глубина : 16 битМетод сжатия : С потерямиЗадержка видео : -80 мс.Размер потока : 33,9 Мбайт (3%)
Меню
ОбщееПолное имя : E:\Nachalo_1970_DVD5_[torrentfilm.net]\VIDEO_TS\VTS_02_2.VOBФормат : MPEG-PSРазмер файла : 1024 МбайтПродолжительность : 24 м.Общий поток : 5798 Кбит/сек
ВидеоИдентификатор : 224 (0xE0)Формат : MPEG VideoВерсия формата : Version 2Профиль формата : Main@MainПараметр BVOP формата : ДаПараметр матрицы формата : ВыборочнаяПараметр GOP формата : M=3, N=15Продолжительность : 24 м.Битрейт : 5500 Кбит/секШирина : 720 пикселейВысота : 576 пикселейСоотношение сторон : 4:3Частота кадров : 25,000 кадров/секСтандарт вещания : PALЦветовое пространство : YUVСубдискретизация насыщенности : 4:2:0Битовая глубина : 8 битТип развёртки : ЧересстрочнаяПорядок развёртки : Верхнее поле первоеМетод сжатия : С потерямиБит/(Пиксели*Кадры) : 0.530Временной код первого кадра : 00:24:42:16Оригинал временного кода : Group of pictures headerРазмер потока : 969 Мбайт (95%)
АудиоИдентификатор : 189 (0xBD)-128 (0x80)Формат : AC-3Формат/Информация : Audio Coding 3Расширение режима : CM (complete main)Параметр Endianness формата : BigРежим смешивания : DVD-VideoПродолжительность : 24 м.Вид битрейта : ПостоянныйБитрейт : 192 Кбит/секКаналы : 2 каналаРасположение каналов : Front: L RЧастота : 48,0 КГцБитовая глубина : 16 битМетод сжатия : С потерямиЗадержка видео : -728 мс.Размер потока : 33,9 Мбайт (3%)
Меню
ОбщееПолное имя : E:\Nachalo_1970_DVD5_[torrentfilm.net]\VIDEO_TS\VTS_02_3.VOBФормат : MPEG-PSРазмер файла : 1024 МбайтПродолжительность : 24 м.Общий поток : 5797 Кбит/сек
ВидеоИдентификатор : 224 (0xE0)Формат : MPEG VideoВерсия формата : Version 2Профиль формата : Main@MainПараметр BVOP формата : ДаПараметр матрицы формата : ВыборочнаяПараметр GOP формата : M=3, N=15Продолжительность : 24 м.Битрейт : 5500 Кбит/секШирина : 720 пикселейВысота : 576 пикселейСоотношение сторон : 4:3Частота кадров : 25,000 кадров/секСтандарт вещания : PALЦветовое пространство : YUVСубдискретизация насыщенности : 4:2:0Битовая глубина : 8 битТип развёртки : ЧересстрочнаяПорядок развёртки : Верхнее поле первоеМетод сжатия : С потерямиБит/(Пиксели*Кадры) : 0.530Временной код первого кадра : 00:49:24:01Оригинал временного кода : Group of pictures headerРазмер потока : 969 Мбайт (95%)
АудиоИдентификатор : 189 (0xBD)-128 (0x80)Формат : AC-3Формат/Информация : Audio Coding 3Расширение режима : CM (complete main)Параметр Endianness формата : BigРежим смешивания : DVD-VideoПродолжительность : 24 м.Вид битрейта : ПостоянныйБитрейт : 192 Кбит/секКаналы : 2 каналаРасположение каналов : Front: L RЧастота : 48,0 КГцБитовая глубина : 16 битМетод сжатия : С потерямиЗадержка видео : -720 мс.Размер потока : 33,9 Мбайт (3%)
Меню
ОбщееПолное имя : E:\Nachalo_1970_DVD5_[torrentfilm.net]\VIDEO_TS\VTS_02_4.VOBФормат : MPEG-PSРазмер файла : 500 МбайтПродолжительность : 12 м.Общий поток : 5796 Кбит/сек
ВидеоИдентификатор : 224 (0xE0)Формат : MPEG VideoВерсия формата : Version 2Профиль формата : Main@MainПараметр BVOP формата : ДаПараметр матрицы формата : ВыборочнаяПараметр GOP формата : M=3, N=15Продолжительность : 12 м.Битрейт : 5500 Кбит/секШирина : 720 пикселейВысота : 576 пикселейСоотношение сторон : 4:3Частота кадров : 25,000 кадров/секСтандарт вещания : PALЦветовое пространство : YUVСубдискретизация насыщенности : 4:2:0Битовая глубина : 8 битТип развёртки : ЧересстрочнаяПорядок развёртки : Верхнее поле первоеМетод сжатия : С потерямиБит/(Пиксели*Кадры) : 0.530Временной код первого кадра : 01:14:05:11Оригинал временного кода : Group of pictures headerРазмер потока : 473 Мбайт (95%)
АудиоИдентификатор : 189 (0xBD)-128 (0x80)Формат : AC-3Формат/Информация : Audio Coding 3Расширение режима : CM (complete main)Параметр Endianness формата : BigРежим смешивания : DVD-VideoПродолжительность : 12 м.Вид битрейта : ПостоянныйБитрейт : 192 Кбит/секКаналы : 2 каналаРасположение каналов : Front: L RЧастота : 48,0 КГцБитовая глубина : 16 битМетод сжатия : С потерямиЗадержка видео : -424 мс.Размер потока : 16,6 Мбайт (3%)
Меню

Скриншоты



Скриншоты меню

Дополнительная информация

Дополнительная информация

Раздача: По возможности!!!
[Профиль] [ЛС]

Создавать темы 06-Авг-2015 23:37 (спустя 26 дней)

Топик был перенесен из форума Фильмы (HD DVD, Blu-ray и BDRemux) в форум Фильмы (DVD 5/9)
sergej644
 
Показать сообщения:    

Текущее время: Сегодня 07:04

Часовой пояс: GMT



Вы не можете начинать темы
Вы не можете отвечать на сообщения
Вы не можете редактировать свои сообщения
Вы не можете удалять свои сообщения
Вы не можете голосовать в опросах
Вы не можете прикреплять файлы к сообщениям
Вы не можете скачивать файлы