Нация Z / Z Nation (Cезон 1-3, Cерия 1-38 из 42) (Абрам Кокс, Джон Хайамс, Тим Эндрю, Луис Прието) [2014-2016, Хоррор, экшен, зомби, апокалипсис, WEBDLRip-AVC][1080р] [MVO] [LostFilm]

 
Автор Сообщение

Враг Нароода ®

Стаж: 1 год 8 месяцев

Сообщений: 112



Награды: 2 (Подробнее)

За внесенный вклад в развитие сайта (Количество: 1) Mega Seeder 1 (Количество: 1)
Торрент-статистика

Создавать темы 06-Окт-2015 11:39

[Цитировать]

bn-- --Нация Z / Z Nation Cезон 1-2, Cерия 1-38 из 42 -- --Год выпуска: 2014-2016
Выпущено: США , The Asylum, Go2 Digital Media
Жанр: Хоррор, экшен, зомби, апокалипсис
Продолжительность: 00:43:00
Сезон: 1-3
Серия: 1-38
Количество серий в сезоне: 42
Озвучка 1: Профессиональный многоголосый - LostFilm-Русский
Озвучка 2: Профессиональный многоголосый -Английский -Оригинал
Субтитры: НЕТ--Сайт сериала:
--Режиссер: Абрам Кокс, Джон Хайамс, Тим Эндрю, Луис Прието--Сценаристы:
Дженнифер Дженнифер Дервингсон, Майкл Кассутт, Карл Шефер, Дэн Мерчант--В ролях: Анастасия Баранова (Эдди), Ди Джей Куоллс (Гражданин Z), Гарольд Перрино (Хэммонд), Майкл Уэлч (Мак), Расселл Ходжкинсон (Док), Том Эверетт Скотт (Гарнетт)-- Новый экшен-хоррор от телеканала SyFy раскроет секреты выживания в постапокалиптической Америке, большая часть населения которой превратилась в зомби. Главным отличием этого проекта от его ближайших телевизионных конкурентов является повышенная динамика повествования и обилие рвущих шаблоны сюжетных ходов. «Нация Z» — это свежий и довольно смелый взгляд на неиссякаемую тему зомби-апокалипсиса. Сюжет:
Через три года после того, как стремительный зомби-вирус поразил большую часть населения США, а правительство страны было свергнуто, группа выживших взялась за выполнение смертельно опасной миссии. Чтобы спасти тех, кто еще не заразился, им необходимо доставить одного уникального гражданина из Нью-Йорка в Калифорнию. Там, на другом конце страны, предположительно находится функционирующая лаборатория с учеными, способными использовать антитела этого уникума для создания вакцины, которая поможет остановить эпидемию. Однако «путешественники» не подозревают, что их бесценный «груз» хранит страшную тайну. Его секрет может поставить под угрозу как саму миссию, так и спасение всего человечества...-- --1 Сезон
Качество : WEB-DLRip-AVC 1080p
Формат: MPEG-4
Видео кодек: H264
Видео: 7284ит/сек,1920х1080(16.9),в 25.000кадр/сек,AVC(Baseline@L4.0)(1Ref Frames)
Аудио кодек: AAC
Аудио Russian:309Кбит/сек,48.0КГц,2канала,AAC,(Version4)(LC)
2-3 Сезон
Качество :WEB-DLRip-AVC 1080p
Формат: MKV
Видео кодек: H264
Видео: 5306Кбит/сек,1920х1080(16.9),в 23.976кадр/сек,AVC(High@L4)(CABAC/2 Ref Frames)
Аудио Кодек:AC3
Аудио #1:AC3 , 384 Kbps, 48.0 KHz, 6 ch- -LostFilm
Аудио #2: AC3, 384 Kbps, 48.0 KHz,6 ch - - English-- --

Доп. информация:

Звуковая дорожка сделана путем наложения чистого голоса озвучивателей на центральный канал оригинальной дорожки. Качество идентично звуковой дорожке.
--

Список эпизодов сезонов

1 Сезон
01 Щенки и котята (Puppies and Kittens)
02 Долбаные зомби (Fracking Zombies)
03 Пир в Филадельфии (Philly Feast)
04 Цельнометаллический зомби (Full Metal Zombie)
05 Милый дом, милый зомби (Home Sweet Zombie)
06 Воскрешение Зет (Resurrection Z)
07 Добро пожаловать в Бар-Дак (Welcome to the FU-Bar)
08 Зунами (Zunami)
09 Умри, зомби, умри... снова (Die Zombie Die... Again)
10 На грани ядерного взрыва (Going Nuclear)
11 Сестры милосердия (Sisters of Mercy)
12 Закон Мёрфи (Murphy's Law)
13 Доктор мёртвых (Doctor of the Dead)

2 Сезон
01 Тот самый Мерфи (The Murphy)
02 Белый свет (White Light)
03 Дорога зомби (Zombie Road)
04 Партия 47 (Batch 47)
05 Зомбёнок (Zombaby)
06 Папуля зомбёнка (Zombie Baby Daddy)
07 Вниз по Миссисипи (Down the Mississippi)
08 Коллекционер (The Collector)
09 Розуэлл (Rozwell)
10 Мимо Гранд-Каньона мы не проезжали (We Were Nowhere Near the Grand Canyon)
11 Корпоративный выездной семинар (Corporate Retreat )
12 Вечеринка у Зеро (Party With the Zeros)
13 Адиос, мучачос! (Adiós, Muchachos)
14 День первый (Day One)
15 Всё хорошее когда-нибудь кончается (All Good Things Must Come to an End)

3 Сезон
01 Никакой пощады (No Mercy)
02 Новая миссия (A New Mission)
03 0Чудо Мёрфи (Murphy's Miracle)
04 Скорпион и Красная рука (Escorpion and the Red Hand)
05 Красная Шапочка и волки (Little Red and the Wolfz)
06 Полет Дока над гнездом кукушки (Doc Flew Over the Cuckoo's Nest)
07 Добро пожаловать в Мёрфиград (Welcome to Murphytown)
08 День выборов (Election Day)
09 Сердце тьмы (Heart of Darkness)
10 Они так быстро растут (They Grow Up So Quickly)
--

MediaInfo 1 Сезона

General
Полное имя : D:\У Ж А С Ы\Нация Z\Z_NATION_2014_S01_RUS[LostFilm_TV]_x264_Nikolai.Baranov_WEB-DLRip-AVC_(1080p)\Z_NATION_2014_S01E01_RUS[LostFilm_TV]_x264_Nikolai.Baranov_WEB-DLRip-AVC_(1080p).mp4
Формат : MPEG-4
Профиль формата : Base Media
Идентификатор кодека : isom
Размер файла : 2.29 GiB
Продолжительность : 43mn 10s
Режим общего битрейта : Variable
Общий поток : 7 598 Kbps
Название фильма : The Strain 1x11 The Third Rail @ AlexFilm
Дата кодирования : UTC 2014-09-28 20:44:42
Дата пометки : UTC 2014-09-28 20:44:42
Программа кодирования : Lavf51.12.1
Video
Идентификатор : 1
Формат : AVC
Формат/Информация : Advanced Video Codec
Профиль формата : Baseline@L4.0
Параметр CABAC формата : No
Параметр ReFrames формата : 1 frame
Параметр GOP формата : M=1, N=12
Идентификатор кодека : avc1
Идентификатор кодека/Информация : Advanced Video Coding
Продолжительность : 43mn 10s
Вид битрейта : Variable
Битрейт : 7 284 Kbps
Максимальный битрейт : 10.5 Mbps
Ширина : 1 920 pixels
Высота : 1 080 pixels
Соотношение сторон : 16:9
Режим частоты кадров : Constant
Частота кадров : 25.000 fps
Частота кадров в оригинале : 24.000 fps
Цветовое пространство : YUV
Субдискретизация насыщенности : 4:2:0
Битовая глубина : 8 bits
Тип развёртки : Progressive
Бит/(Пиксели*Кадры) : 0.141
Размер потока : 2.20 GiB (96%)
Дата кодирования : UTC 2014-09-28 20:44:42
Дата пометки : UTC 2014-09-28 20:44:42
Audio
Идентификатор : 2
Формат : AAC
Формат/Информация : Advanced Audio Codec
Профиль формата : LC
Идентификатор кодека : 40
Продолжительность : 43mn 10s
Вид битрейта : Variable
Битрейт : 309 Kbps
Каналы : 2 channels
Channel(s)_Original : 6 channels
Расположение каналов : Front: L C R, Side: L R, LFE
Частота : 48.0 KHz
Метод сжатия : Lossy
Размер потока : 95.5 MiB (4%)
Дата кодирования : UTC 2014-09-28 20:44:42
Дата пометки : UTC 2014-09-28 20:44:42
--

MediaInfo 2 Сезона

Общее
Полное имя : E:\К ИНО\УЖАСЫ\Нация Z\Z_NATION_2014_-_2015_S01_-_S02_RUS[LostFilm]_x264_N.B_WEB-DLRip_1080p\S02\Z_NATION_2015_S02E01_Rus_Eng[LostFilm]_x264_N.B_WEB-DLRip-AVC_1080p.mkv
Формат : Matroska
Версия формата : Version 2
Размер файла : 1,91 Гбайт
Продолжительность : 44 м.
Режим общего битрейта : Переменный
Общий поток : 6197 Кбит/сек
Программа кодирования : libmatroska 1.4.1
Библиотека кодирования : SolveigMM Matroska Muxer Version 1.0.1502.18
Видео
Идентификатор : 1
Формат : AVC
Формат/Информация : Advanced Video Codec
Профиль формата : High@L4
Параметр CABAC формата : Да
Параметр ReFrames формата : 2 кадра
Параметр GOP формата : M=2, N=15
Идентификатор кодека : V_MPEG4/ISO/AVC
Вид битрейта : Переменный
Битрейт : 5306 Кбит/сек
Максимальный битрейт : 16,0 Мбит/сек
Ширина : 1920 пикселей
Высота : 1080 пикселей
Соотношение сторон : 16:9
Режим частоты кадров : Переменный
Частота кадров в оригинале : 29,970 кадров/сек
Цветовое пространство : YUV
Субдискретизация насыщенности : 4:2:0
Битовая глубина : 8 бит
Тип развёртки : Прогрессивная
Язык : English
Default : Нет
Forced : Нет
Аудио #1
Идентификатор : 2
Формат : AC-3
Формат/Информация : Audio Coding 3
Расширение режима : CM (complete main)
Параметр Endianness формата : Big
Идентификатор кодека : A_AC3
Продолжительность : 44 м.
Вид битрейта : Постоянный
Битрейт : 384 Кбит/сек
Каналы : 6 каналов
Расположение каналов : Front: L C R, Side: L R, LFE
Частота : 48,0 КГц
Битовая глубина : bit0
Метод сжатия : С потерями
Размер потока : 121 Мбайт (6%)
Default : Нет
Forced : Нет
Аудио #2
Идентификатор : 3
Формат : AC-3
Формат/Информация : Audio Coding 3
Расширение режима : CM (complete main)
Параметр Endianness формата : Big
Идентификатор кодека : A_AC3
Продолжительность : 44 м.
Вид битрейта : Постоянный
Битрейт : 384 Кбит/сек
Каналы : 6 каналов
Расположение каналов : Front: L C R, Side: L R, LFE
Частота : 48,0 КГц
Битовая глубина : bit0
Метод сжатия : С потерями
Размер потока : 121 Мбайт (6%)
Default : Нет
Forced : Нет
--

MediaInfo 3 Сезона

Общее
Уникальный идентификатор : 188323040888646333955055012541070625024 (0x8DADB2C826775A0F8E3DD91266E0C900)
Полное имя : E:\НАЦИЯ Z\Z_NATION_2014_-_2016_S01_-_S03_RUS[LostFilm]_x264_N.B_WEB-DLRip_1080p\S03\Z_NATION_2016_S03E01_Rus_Eng[LostFilm]_x264_N.B_WEB-DLRip-AVC_1080p.mkv
Формат : Matroska
Версия формата : Version 4 / Version 2
Размер файла : 3,69 Гбайт
Продолжительность : 1 ч. 26 м.
Режим общего битрейта : Переменный
Общий поток : 6104 Кбит/сек
Название фильма : Z_NATION_2016_S03E01_Rus_Eng[LostFilm]_x264_N.B_WEB-DLRip-AVC_1080p
Дата кодирования : UTC 2016-10-09 17:46:09
Программа кодирования : mkvmerge v9.4.2 ('So High') 64bit
Библиотека кодирования : libebml v1.3.4 + libmatroska v1.4.5
Видео
Идентификатор : 1
Формат : AVC
Формат/Информация : Advanced Video Codec
Профиль формата : High@L4
Параметр CABAC формата : Да
Параметр ReFrames формата : 2 кадра
Параметр GOP формата : M=2, N=15
Идентификатор кодека : V_MPEG4/ISO/AVC
Продолжительность : 1 ч. 26 м.
Вид битрейта : Переменный
Битрейт : 5334 Кбит/сек
Максимальный битрейт : 16,0 Мбит/сек
Ширина : 1920 пикселей
Высота : 1080 пикселей
Соотношение сторон : 16:9
Режим частоты кадров : Переменный
Частота кадров : 24,044 кадра/сек
Частота кадров в оригинале : 29,970 (30000/1001) кадров/сек
Цветовое пространство : YUV
Субдискретизация насыщенности : 4:2:0
Битовая глубина : 8 бит
Тип развёртки : Прогрессивная
Бит/(Пиксели*Кадры) : 0.107
Размер потока : 3,23 Гбайт (87%)
Заголовок : Z_NATION_2016_S03E01_Rus_Eng[LostFilm]_x264_N.B_WEB-DLRip-AVC_1080p
Язык : English
Default : Нет
Forced : Нет
Аудио #1
Идентификатор : 2
Формат : AC-3
Формат/Информация : Audio Coding 3
Расширение режима : CM (complete main)
Параметр Endianness формата : Big
Идентификатор кодека : A_AC3
Продолжительность : 1 ч. 26 м.
Вид битрейта : Постоянный
Битрейт : 384 Кбит/сек
Каналы : 6 каналов
Расположение каналов : Front: L C R, Side: L R, LFE
Частота : 48,0 КГц
Частота кадров : 31,250 кадров/сек (1536 spf)
Метод сжатия : С потерями
Размер потока : 238 Мбайт (6%)
Заголовок : MVO LostFilm @DD5.1 AC3, 384 Kbps, 48.0 KHz, 6 ch
Язык : Russian
Default : Нет
Forced : Нет
Аудио #2
Идентификатор : 3
Формат : AC-3
Формат/Информация : Audio Coding 3
Расширение режима : CM (complete main)
Параметр Endianness формата : Big
Идентификатор кодека : A_AC3
Продолжительность : 1 ч. 26 м.
Вид битрейта : Постоянный
Битрейт : 384 Кбит/сек
Каналы : 6 каналов
Расположение каналов : Front: L C R, Side: L R, LFE
Частота : 48,0 КГц
Частота кадров : 31,250 кадров/сек (1536 spf)
Метод сжатия : С потерями
Размер потока : 238 Мбайт (6%)
Заголовок : Original @DD5.1 AC3, 384 Kbps, 48.0 KHz, 6 ch
Язык : English
Default : Нет
Forced : Нет
--

Скриншоты 1 Сезона

--

Скриншоты 2 Сезона

--

Скриншоты 3 Сезона

-- 1 Сезон-- 2 Сезон-- 3 Сезон-- Внимание! Раздача ведётся путём добавления новых серий!--

Внимание! Раздача ведётся путём добавления новых серий!

Раздача ведётся путём добавления новых серий; при каждом добавлении создётся новый торрент.
Чтобы начать докачку новой серии, пользователям необходимо сделать следующее:
1. остановить скачивание,
2. удалить старый торрент у себя из клиента (старые серии удалять не надо),
3. скачать новый торрент и запустить его у себя в клиенте вместо старого, при этом указать клиенту путь в старую папку, куда и должно происходить скачивание новых серий.
Ваш клиент при этом должен произвести хеширование (проверку) старой папки (если не производит сам - помогите ему сделать это), и будет докачивать только те серии которых у вас ещё нет. Старые серии при этом не удаляются, а продолжают раздаваться!
Eсли вы уже удалили старые серии, то предотвратить повторную закачку старых серий можно, отжав галочку в соответсвующих местах при запуске нового торрента. По возможности, желательно не удалять старые серии как можно дольше, чтобы релизёр не столько продолжал раздавать старые серии, а смог сконцентрироваться на новых.
Совет для тех, кто не хочет ждать перехеширования:
Создайте ещё одну папку рядом с папкой сериала (рядом, а не в ней!!!). Каждую новую серию после удачной загрузки копируйте в новую папку так чтобы ваша основная папка всегда была пуста. Когда ваш новый торрент предложит вам закачать все файлы, выберете только последнюю. Для сидирования же укажите адрес новой папки.
Как закачать отдельный файл из торрента или докачать ранее пропущенные файлы торрента!

Как закачать отдельный файл

1. Открыть торрент
2. Снять галки с тех файлов торрента, которые мы не хотим закачивать. Оставляем только на нужных нам файлах (файле).
3. Нажать О.К.
В клиенте utorrent
Инструкция
1) Открыть торрент

2) Снять галки с тех файлов торрента, которые мы не хотим закачивать:
* либо вручную, снимая с каждого файла галку( скрин №1)
* либо, нажав кнопку "Снять метки (Select None)", сняв сразу со всех файлов(скрин №2)
№1

№2

Оставляем только на нужных нам файлах (файле).

3)Нажать О.К
-- -- --Внимание!!! 25.11. 2016. РАЗДАЧА ОБНОВЛЕНА. ОБНОВИТЕ ТОРЕНТ ФАЙЛ.ПРИЯТНОГО ПРОСМОТРА . --Релиз от: Nikolai.Baranov & PIRATIYA -- -- -- --


Последний раз редактировалось: Враг Нароода (2016-11-25 19:30), всего редактировалось 4 раз(а)
[Профиль] [ЛС]

Создавать темы 16-Июл-2016 07:54 (спустя 9 месяцев 9 дней)

Топик был перенесен из форума Сериалы в форум Зарубежные сериалы
Russian Mafia
 
Показать сообщения:    

Текущее время: Сегодня 00:37

Часовой пояс: GMT



Вы не можете начинать темы
Вы не можете отвечать на сообщения
Вы не можете редактировать свои сообщения
Вы не можете удалять свои сообщения
Вы не можете голосовать в опросах
Вы не можете прикреплять файлы к сообщениям
Вы не можете скачивать файлы