Нация фастфуда / Fast Food Nation (Ричард Линклэйтер / Richard Linklater) [2006, США, драма, WEB-DLRip] MVO

 
Автор Сообщение

TorrentFilm ®

Пол:

Стаж: 1 год 11 месяцев

Сообщений: 7741



Награды: Нет

Торрент-статистика

Создавать темы 29-Мар-2016 00:09

[Цитировать]

Нация фастфуда / Fast Food Nation
Страна: США
Жанр: драма
Год выпуска: 2006
Продолжительность: 01:53:07
Перевод: Профессиональный (многоголосый закадровый)
Cубтитры: нет
Оригинальная аудиодорожка: нет-Режиссер: Ричард Линклэйтер / Richard Linklater-В ролях: Каталина Сандино Морено, Патришиа Аркетт, Итан Хоук, Грег Киннер, Крис Кристофферсон, Луис Гусман, Аврил Лавин, Митч Бэйкер, Бобби Каннавале, Эшли Джонсон, Исай Моралес, Лу Тэйлор Пуччи, Ана Клаудиа Таланкон, Уилмер Валдеррама-Описание: Всеамериканская любовь к гамбургерам через цепь историй: от молодой пары имигрантов с мясокомбината, главного поставщика и подростков-клерков из фастфуда до корпоративного начальства, которое неожиданно узнает шокирующую новость.-[url=viewtopic.php?t=1460328] [/url]-Качество видео: [url=viewtopic.php?t=5197438]WEB-DLRip[/url]
Формат видео: AVI
Видео: 720x400 (1.80:1), 23.976 fps, XviD build 65 ~1461 kbps avg, 0.21 bit/pixel
Аудио: 48 kHz, AC3 Dolby Digital, 3/2 (L,C,R,l,r) + LFE ch, ~384 kbps-Скачать сэмпл-MediaInfo
Format                      : AVI
Format/Info                 : Audio Video Interleave
File size                   : 1.47 GiB
Duration                    : 1h 53mn
Overall bit rate            : 1 855 Kbps
Writing application         : VirtualDubMod 1.5.10.3 | www.virtualdub-fr.org || (build 2550/release)
Writing library             : VirtualDubMod build 2550/release
Video
ID                          : 0
Format                      : MPEG-4 Visual
Format profile              : Advanced Simple@L5
Format settings, BVOP       : 1
Format settings, QPel       : No
Format settings, GMC        : No warppoints
Format settings, Matrix     : Default (MPEG)
Codec ID                    : XVID
Codec ID/Hint               : XviD
Duration                    : 1h 53mn
Bit rate                    : 1 462 Kbps
Width                       : 720 pixels
Height                      : 400 pixels
Display aspect ratio        : 16:9
Frame rate                  : 23.976 (23976/1000) fps
Color space                 : YUV
Chroma subsampling          : 4:2:0
Bit depth                   : 8 bits
Scan type                   : Progressive
Compression mode            : Lossy
Bits/(Pixel*Frame)          : 0.212
Stream size                 : 1.15 GiB (79%)
Writing library             : XviD 65
Audio
ID                          : 1
Format                      : AC-3
Format/Info                 : Audio Coding 3
Mode extension              : CM (complete main)
Format settings, Endianness : Big
Codec ID                    : 2000
Duration                    : 1h 53mn
Bit rate mode               : Constant
Bit rate                    : 384 Kbps
Channel(s)                  : 6 channels
Channel positions           : Front: L C R, Side: L R, LFE
Sampling rate               : 48.0 KHz
Frame rate                  : 31.250 fps (1536 spf)
Compression mode            : Lossy
Stream size                 : 311 MiB (21%)
Alignment                   : Split accross interleaves
Interleave, duration        : 42 ms (1.00 video frame)
Interleave, preload duratio : 500 ms

Скриншоты

[Профиль] [ЛС]
Показать сообщения:    

Текущее время: Сегодня 13:53

Часовой пояс: GMT



Вы не можете начинать темы
Вы не можете отвечать на сообщения
Вы не можете редактировать свои сообщения
Вы не можете удалять свои сообщения
Вы не можете голосовать в опросах
Вы не можете прикреплять файлы к сообщениям
Вы не можете скачивать файлы