Находка (Виктор Демент) [2015, Россия, драма, WEB-DL 720p] + Original Rus

 
Автор Сообщение

TorrentFilm ®

Пол:

Стаж: 2 года

Сообщений: 7741



Награды: Нет

Торрент-статистика

Создавать темы 10-Янв-2016 00:10

[Цитировать]

Находка
Страна: Россия
Студия: кинокомпания «Талан»
Жанр: драма
Год выпуска: 2015
Продолжительность: 01:38:58
Перевод: Не требуется
Cубтитры: нет
Оригинальная аудиодорожка: русский
Режиссер: Виктор Демент
В ролях: Алексей Гуськов, Надежда Маркина, Анастасия Шевелёва, Валерий Смирнов, Мария Сокова, Егор Харламов, Анатолий Узденский, Марат Серажетдинов, Алексей Вертков, Владимир Шульга
Описание: По одноименной повести Владимира Тендрякова. Старший инспектор рыбнадзора Трофим Русанов, считающий себя «Законом», а окружающих людей – «сволочами и ворьем», волей обстоятельств оказывается в таежном лесу, один на один с суровой природой, за десятки километров от человеческого жилья. Случай, происшедший с ним в заснеженной тайге, круто меняет его взгляды на жизнь…

Sample
Тип релиза: WEB-DL 720p
Контейнер: MKV
Видео: MPEG4 AVC Video, H264, 16:9, 1280x534, 24 fps, 3962 kbps
Аудио: Russian (AC3, 6 ch, 384 kbps, 16 bits, 48.0 KHz) - оригинал

MediaInfo

General
Unique ID : 226553647612575253112724002274260779397 (0xAA70A53896A4C613BC93127AC4C38185)
Complete name : E:\Находка 2015 WEB-DL 720p.mkv
Format : Matroska
Format version : Version 4 / Version 2
File size : 3.07 GiB
Duration : 1h 38mn
Overall bit rate : 4 434 Kbps
Encoded date : UTC 2016-01-08 10:30:13
Writing application : mkvmerge v8.3.0 ('Over the Horizon') 64bit
Writing library : libebml v1.3.1 + libmatroska v1.4.2
DURATION : 01:38:58.432000000
NUMBER_OF_FRAMES : 185576
NUMBER_OF_BYTES : 285044736
_STATISTICS_WRITING_APP : mkvmerge v8.3.0 ('Over the Horizon') 64bit
_STATISTICS_WRITING_DATE_UTC : 2016-01-08 10:30:13
_STATISTICS_TAGS : BPS DURATION NUMBER_OF_FRAMES NUMBER_OF_BYTES
Video
ID : 1
Format : AVC
Format/Info : Advanced Video Codec
Format profile : Main@L3.1
Format settings, CABAC : No
Format settings, ReFrames : 2 frames
Codec ID : V_MPEG4/ISO/AVC
Duration : 1h 38mn
Bit rate : 3 962 Kbps
Width : 1 280 pixels
Height : 534 pixels
Display aspect ratio : 2.40:1
Frame rate mode : Constant
Frame rate : 24.000 fps
Color space : YUV
Chroma subsampling : 4:2:0
Bit depth : 8 bits
Scan type : Progressive
Bits/(Pixel*Frame) : 0.242
Stream size : 2.74 GiB (89%)
Language : English
Default : Yes
Forced : No
Color primaries : BT.709
Transfer characteristics : BT.709
Matrix coefficients : BT.709
Audio
ID : 2
Format : AC-3
Format/Info : Audio Coding 3
Mode extension : CM (complete main)
Format settings, Endianness : Big
Codec ID : A_AC3
Duration : 1h 38mn
Bit rate mode : Constant
Bit rate : 384 Kbps
Channel count : 6 channels
Channel positions : Front: L C R, Side: L R, LFE
Sampling rate : 48.0 KHz
Bit depth : 16 bits
Compression mode : Lossy
Stream size : 272 MiB (9%)
Language : Russian
Default : Yes
Forced : No
Menu
00:00:00.000 : en:1
00:06:40.000 : en:2
00:13:20.000 : en:3
00:20:00.000 : en:4
00:26:40.000 : en:5
00:33:20.000 : en:6
00:39:49.000 : en:7
00:45:40.000 : en:8
00:52:25.000 : en:9
00:58:54.000 : en:10
01:05:23.000 : en:11
01:13:36.000 : en:12
01:18:55.000 : en:13
01:25:20.000 : en:14
01:30:06.000 : en:15
01:36:12.000 : en:16

Скриншоты

[Профиль] [ЛС]
Показать сообщения:    

Текущее время: Сегодня 10:30

Часовой пояс: GMT



Вы не можете начинать темы
Вы не можете отвечать на сообщения
Вы не можете редактировать свои сообщения
Вы не можете удалять свои сообщения
Вы не можете голосовать в опросах
Вы не можете прикреплять файлы к сообщениям
Вы не можете скачивать файлы