Находка (2015) WEBRip

 
Автор Сообщение

достали все ®

Пол:

Стаж: 1 год 8 месяцев

Сообщений: 6600



Награды: 12 (Подробнее)

За внесенный вклад в развитие сайта (Количество: 1) Mega Seeder 4 (Количество: 1) Mega Seeder 5 (Количество: 1)
Торрент-статистика

Создавать темы 02-Янв-2016 05:14

[Цитировать]

-Находка (2015) WEBRip- Производство: Россия, Кинокомпания «Талан»
Жанр: Драма, экранизация
Режиссер: Виктор Демент
Актеры: Алексей Гуськов, Надежда Маркина, Анастасия Шевелёва, Валерий Смирнов, Мария Сокова, Егор Харламов, Анатолий Узденский, Марат Серажетдинов, Алексей Вертков, Владимир Шульга
Описание:
По одноименной повести Владимира Тендрякова. Старший инспектор рыбнадзора Трофим Русанов, считающий себя «Законом», а окружающих людей – «сволочами и ворьем», волей обстоятельств оказывается в таежном лесу, один на один с суровой природой, за десятки километров от человеческого жилья. Случай, происшедший с ним в заснеженной тайге, круто меняет его взгляды на жизнь…

Дата премьеры в России: 3 декабря 2015
Продолжительность: 01:37:59
Качество видео: WEBRip
Перевод: Не требуется (язык русский)
Субтитры: Отсутствуют
Видео: MPEG4, XviD, 720x304 (2.35:1), 24.000 fps, 861 Kbps (0.164 bit/pixel)
Аудио: AC-3, 48.0 KHz, 2 ch, 128 Kbps, CBR

MediaInfo:

Общее
Полное имя                               : C:\NNM\Находка\Nahodka 2015 WEBRip 700.avi
Формат                                   : AVI
Формат/Информация                        : Audio Video Interleave
Размер файла                             : 700 Мбайт
Продолжительность                        : 1 ч. 37 м.
Общий поток                              : 998 Кбит/сек
Программа кодирования                    : VirtualDubMod 1.5.10.2 (build 2540/release)
Библиотека кодирования                   : VirtualDubMod build 2540/release
Видео
Идентификатор                            : 0
Формат                                   : MPEG-4 Visual
Профиль формата                          : Advanced Simple@L5
Параметр BVOP формата                    : 2
Параметр QPel формата                    : Нет
Параметр GMC формата                     : Без точки перехода
Параметр матрицы формата                 : Default (MPEG)
Идентификатор кодека                     : XVID
Идентификатор кодека/Подсказка           : XviD
Продолжительность                        : 1 ч. 37 м.
Битрейт                                  : 861 Кбит/сек
Ширина                                   : 720 пикселей
Высота                                   : 304 пикселя
Соотношение сторон                       : 2,35:1
Частота кадров                           : 24,000 кадра/сек
Цветовое пространство                    : YUV
Субдискретизация насыщенности            : 4:2:0
Битовая глубина                          : 8 бит
Тип развёртки                            : Прогрессивная
Метод сжатия                             : С потерями
Бит/(Пиксели*Кадры)                      : 0.164
Размер потока                            : 603 Мбайт (86%)
Библиотека кодирования                   : XviD 1.2.1 (UTC 2008-12-04)
Аудио
Идентификатор                            : 1
Формат                                   : AC-3
Формат/Информация                        : Audio Coding 3
Расширение режима                        : CM (complete main)
Идентификатор кодека                     : 2000
Продолжительность                        : 1 ч. 37 м.
Вид битрейта                             : Постоянный
Битрейт                                  : 128 Кбит/сек
Каналы                                   : 2 канала
Расположение каналов                     : Front: L R
Частота                                  : 48,0 КГц
Битовая глубина                          : 16 бит
Метод сжатия                             : С потерями
Размер потока                            : 89,7 Мбайт (13%)
Выравнивание                             : Разделение по промежуткам
Продолжительность промежутка             : 42  мс. (1,00 видеокадр)
Время предзагрузки промежутка            : 500  мс.
Скриншоты:
[Профиль] [ЛС]
Показать сообщения:    

Текущее время: Сегодня 23:29

Часовой пояс: GMT



Вы не можете начинать темы
Вы не можете отвечать на сообщения
Вы не можете редактировать свои сообщения
Вы не можете удалять свои сообщения
Вы не можете голосовать в опросах
Вы не можете прикреплять файлы к сообщениям
Вы не можете скачивать файлы