Наука 2.0. EXперименты (38 выпусков) [Россия HD] [2011-2014, Документальный, HDTVRip 720p]

 
Автор Сообщение

TorrentFilm ®

Пол:

Стаж: 2 года

Сообщений: 7741



Награды: Нет

Торрент-статистика

Создавать темы 31-Дек-2014 00:00

[Цитировать]

Наука 2.0. EXперименты
Год выпуска: 2011-2014
Страна: Россия
Жанр: Документальный
Продолжительность: ~26 мин.
Перевод: Не требуется
Русские субтитры: нет
Автор и ведущий: Антон Войцеховский
Описание: В каждой программе автор и ведущий Антон Войцеховский в доступной форме раскрывает зрителям суть явлений и научных открытий. Свои вопросы он задает ведущим экспертам разных областей. И с помощью анимации и графики рассказывает просто о самом сложном.
Сэмпл: http://multi-up.com/986514
Тип релиза: HDTVRip 720p
Контейнер: MKV
Видео: MPEG-4 AVC, 3500 kbps , 1280x720 (16:9), 25.000 fps
Аудио: AC3, 2 ch, 48 kHz, 192 kbps
ВНИМАНИЕ! ВОЗМОЖНО ДОБАВЛЕНИЕ ВЫПУСКОВ!

MediaInfo

GeneralUnique ID : 198517519747406546097671210125933541659 (0x95591565485F83BB9501E234F20DF91B)Complete name : Необычные плавательные аппараты. Фильм 2 (2014) HDTVRip720p.mkvFormat : MatroskaFormat version : Version 4 / Version 2File size : 686 MiBDuration : 25mn 57sOverall bit rate : 3 695 KbpsEncoded date : UTC 2014-06-10 04:32:06Writing application : mkvmerge v6.9.1 ('Blue Panther') 64bit built on Apr 18 2014 18:23:38Writing library : libebml v1.3.0 + libmatroska v1.4.1
VideoID : 1Format : AVCFormat/Info : Advanced Video CodecFormat profile : High@L4.1Format settings, CABAC : YesFormat settings, ReFrames : 8 framesCodec ID : V_MPEG4/ISO/AVCDuration : 25mn 57sBit rate : 3 500 KbpsWidth : 1 280 pixelsHeight : 720 pixelsDisplay aspect ratio : 16:9Frame rate mode : ConstantFrame rate : 25.000 fpsColor space : YUVChroma subsampling : 4:2:0Bit depth : 8 bitsScan type : ProgressiveBits/(Pixel*Frame) : 0.152Stream size : 637 MiB (93%)Writing library : x264 core 138 r2358 9e941d1Encoding settings : cabac=1 / ref=8 / deblock=1:-2:-2 / analyse=0x3:0x133 / me=umh / subme=9 / psy=1 / psy_rd=1.00:0.00 / mixed_ref=1 / me_range=24 / chroma_me=1 / trellis=2 / 8x8dct=1 / cqm=0 / deadzone=21,11 / fast_pskip=1 / chroma_qp_offset=-2 / threads=12 / lookahead_threads=2 / sliced_threads=0 / nr=0 / decimate=1 / interlaced=0 / bluray_compat=0 / constrained_intra=0 / bframes=8 / b_pyramid=2 / b_adapt=2 / b_bias=0 / direct=3 / weightb=1 / open_gop=0 / weightp=2 / keyint=250 / keyint_min=25 / scenecut=40 / intra_refresh=0 / rc_lookahead=60 / rc=2pass / mbtree=1 / bitrate=3500 / ratetol=1.0 / qcomp=0.60 / qpmin=10 / qpmax=51 / qpstep=4 / cplxblur=20.0 / qblur=0.5 / vbv_maxrate=40000 / vbv_bufsize=40000 / nal_hrd=none / ip_ratio=1.40 / aq=1:1.00Language : RussianDefault : YesForced : No
AudioID : 2Format : AC-3Format/Info : Audio Coding 3Mode extension : CM (complete main)Format settings, Endianness : BigCodec ID : A_AC3Duration : 25mn 57sBit rate mode : ConstantBit rate : 192 KbpsChannel(s) : 2 channelsChannel positions : Front: L RSampling rate : 48.0 KHzBit depth : 16 bitsCompression mode : LossyStream size : 35.7 MiB (5%)Language : RussianDefault : YesForced : No

Скриншоты


[Профиль] [ЛС]
Кто просматривает тему:

Форум Тема Автор Размер
BBC BBC: Истории о древней земле. Знакомьтесь с предками / Stories from the Dark Earth. Meet the Ancestors [серии 1-4 из 4] (Бен Кричтон, Вилл Ярсли, Марк Вильямс, Джорджина Лес... skorpionN 5.56 GB
Da Vinci Learning Da Vinci Learning: Формат 21 / NZZ Format [серии 1-29 из 30] (Gabriela Neuhays, Basil Gelpke, Ursula Bishof Scherer, Beat Rauch) [2006 г., Документальный, наука, изобретения, инн... skorpionN 12.24 GB
Discovery Discovery: Наука магии / Discovery: Science magic [2013 г., Документальный., DVB] VO (VoiceOver) reversefile 5.02 GB
Discovery Discovery: Сверхчеловеческая наука / Super Human Science (2013) HDTVRip (Серия 13) sergej644 273 MB
Научная и техническая литература А. Ивин - Наука, паранаука и псевдонаука. От алхимии к химии,от астрологии к астрономии (2016) PDF достали все 2 MB
Документальные HD Буран. Созвездие Волка (Константин Мурашев) [2010, Россия, Документальный, наука, космонавтика, расследование, HDTVRip 720p] TorrentFilm 1.45 GB
Научная и техническая литература Журнал | Наука в фокусе №11 (ноябрь 2014) [PDF] sergej644 53 MB
Разное Журнал | Наука и жизнь №5 (Май 2015) [PDF] достали все 21 MB
Показать сообщения:    

Текущее время: Сегодня 07:13

Часовой пояс: GMT



Вы не можете начинать темы
Вы не можете отвечать на сообщения
Вы не можете редактировать свои сообщения
Вы не можете удалять свои сообщения
Вы не можете голосовать в опросах
Вы не можете прикреплять файлы к сообщениям
Вы не можете скачивать файлы