Настоящий Детектив / True Detective [S02] (2015) BDRip 720p от NNNB | P, P2, L, A

 
Автор Сообщение

Russian Mafia ®

Пол:

Стаж: 1 год 8 месяцев

Сообщений: 4257



Награды: 10 (Подробнее)

За внесенный вклад в развитие сайта (Количество: 1) Mega Seeder 5 (Количество: 1) Top Releaser 2 (Количество: 1)
Торрент-статистика

Создавать темы 18-Окт-2016 16:19

[Цитировать]

Настоящий детектив / True Detective
Сезон 2: Серии 1-8 из 8
Русское название: Настоящий детектив
Оригинальное название: True Detective
Год выпуска: 2015
Жанр: детектив, криминал, триллер, драма
Выпущено: США
Режиссер: Джастин Лин, Дэниэл Эттиэс, Янус Мец Педерсен, Мигель Сапочник
В ролях: Колин Фаррелл, Рэйчел МакАдамс, Тейлор Китч, Винс Вон, У. Эрл Браун, Крис Керсон, К.С. Ли, Кристофер Джеймс Бэйкер, Майкл Ирби, Тимоти В. Мерфи, Адриа Архона, Миранда Рэй Майо, Келли Райлли
Перевод: Профессиональный многоголосый, Профессиональный двухголосый, Любительский многоголосый, Авторский одноголосый

Сюжет фильма:
Мы живем в мире, который заслуживаем. В новом сезоне культового сериала зрителей ждут новое расследование и новые герои. Мрачное убийство, произошедшее в Калифорнии объединяет четырех персонажей в исполнении Колина Фаррелла, Рэйчел МакАдамс, Тейлора Китча и Винса Вона. Они объединяются, чтобы начать охоту на таинственного убийцу и разоблачить тех, чьи приказы он выполняет.

Качество: BDRip 720p
Формат: AVC (библиотека кодирования x.264)
Контейнер (Расширение): MKV
Видео: 1280x720, 8741 Кбит/сек, 23,976 кадр/сек
Аудио №1: русский / AC3 / 5.1 / 48 kHz / 640 kbps / |Авторский одноголосый, Ю.Сербин|
Аудио №2: русский / AC3 / 5.1 / 48 kHz / 640 kbps / |Авторский одноголосый, А. Матвеев|
Аудио №3: русский / AC3 / 5.1 / 48 kHz / 384 kbps / |Профессиональный многоголосый, Amedia|
Аудио №4: русский / AC3 / 5.1 / 48 kHz / 384 kbps / |Профессиональный двухголосый, Кубик в кубе|
Аудио №5: русский / AC3 / 5.1 / 48 kHz / 384 kbps / |Любительский многоголосый, BaiBaKo|
Аудио №6: английский / AC3 / 5.1 / 48 kHz / 640 kbps /
Субтитры: русские, английские
Навигация по главам(Чаптеры): есть
Продолжительность серии: ~ 00:59:00Автор рипа: Сообщество: ***Работа со звуком и субтитрами _denis_100
***за перевод Ю.Сербина спасибо форуму е180
***за изготовление дороги Ю.Сербина спасибо HD AVO - Форум любителей авторского перевода фильмов

Список серий

01. Западная книга мертвых / The Western Book of the Dead
02. Тебя застанет ночь / Night Finds You
03. Может, завтра / Maybe Tomorrow
04. Падение / Down Will Come
05. Другие жизни / Other Lives
06. Церковь в руинах / Church in Ruins
07. Чёрные карты и номера мотеля / Black Maps and Motel Rooms
08. Конечная станция / Omega Station

MediaInfo (пример одной из серий)

Format : Matroska
Format version : Version 2
File size : 4.77 GiB
Duration : 59 min 43 s
Overall bit rate : 11.4 Mb/s
Movie name : True.Detective.2015.S02E05.BDRip.720p.[denis100]
Encoded date : UTC 2016-10-17 16:01:27
Writing application : mkvmerge v5.8.0 ('No Sleep / Pillow') built on Sep 2 2012 15:37:04
Writing library : libebml v1.2.3 + libmatroska v1.3.0
Video
ID : 1
Format : AVC
Format/Info : Advanced Video Codec
Format profile : High@L4.1
Format settings, CABAC : Yes
Format settings, ReFrames : 9 frames
Codec ID : V_MPEG4/ISO/AVC
Duration : 59 min 43 s
Bit rate : 8 129 kb/s
Width : 1 280 pixels
Height : 720 pixels
Display aspect ratio : 16:9
Frame rate mode : Constant
Frame rate : 23.976 (24000/1001) FPS
Color space : YUV
Chroma subsampling : 4:2:0
Bit depth : 8 bits
Scan type : Progressive
Bits/(Pixel*Frame) : 0.368
Stream size : 3.39 GiB (71%)
Title : True.Detective.2015.S02E05.BDRip.720p.[denis100]
Writing library : x264 core 148 r2721 72d53ab
Encoding settings : cabac=1 / ref=9 / deblock=1:-3:-3 / analyse=0x3:0x133 / me=umh / subme=11 / psy=1 / psy_rd=1.00:0.05 / mixed_ref=1 / me_range=32 / chroma_me=1 / trellis=2 / 8x8dct=1 / cqm=0 / deadzone=21,11 / fast_pskip=0 / chroma_qp_offset=-3 / threads=6 / lookahead_threads=1 / sliced_threads=0 / nr=0 / decimate=1 / interlaced=0 / bluray_compat=0 / constrained_intra=0 / bframes=9 / b_pyramid=2 / b_adapt=2 / b_bias=0 / direct=3 / weightb=1 / open_gop=0 / weightp=2 / keyint=240 / keyint_min=23 / scenecut=40 / intra_refresh=0 / rc=crf / mbtree=0 / crf=17.5 / qcomp=0.60 / qpmin=0 / qpmax=69 / qpstep=4 / ip_ratio=1.40 / pb_ratio=1.30 / aq=1:0.75
Language : English
Default : Yes
Forced : No
Audio #1
ID : 2
Format : AC-3
Format/Info : Audio Coding 3
Mode extension : CM (complete main)
Format settings, Endianness : Big
Codec ID : A_AC3
Duration : 59 min 43 s
Bit rate mode : Constant
Bit rate : 640 kb/s
Channel(s) : 6 channels
Channel positions : Front: L C R, Side: L R, LFE
Sampling rate : 48.0 kHz
Frame rate : 31.250 FPS (1536 spf)
Compression mode : Lossy
Stream size : 273 MiB (6%)
Title : AVO, Ю.Сербин
Language : Russian
Default : Yes
Forced : No
Audio #2
ID : 3
Format : AC-3
Format/Info : Audio Coding 3
Mode extension : CM (complete main)
Format settings, Endianness : Big
Codec ID : A_AC3
Duration : 59 min 43 s
Bit rate mode : Constant
Bit rate : 640 kb/s
Channel(s) : 6 channels
Channel positions : Front: L C R, Side: L R, LFE
Sampling rate : 48.0 kHz
Frame rate : 31.250 FPS (1536 spf)
Compression mode : Lossy
Stream size : 273 MiB (6%)
Title : AVO, А. Матвеев
Language : Russian
Default : No
Forced : No
Audio #3
ID : 4
Format : AC-3
Format/Info : Audio Coding 3
Mode extension : CM (complete main)
Format settings, Endianness : Big
Codec ID : A_AC3
Duration : 59 min 43 s
Bit rate mode : Constant
Bit rate : 384 kb/s
Channel(s) : 6 channels
Channel positions : Front: L C R, Side: L R, LFE
Sampling rate : 48.0 kHz
Frame rate : 31.250 FPS (1536 spf)
Compression mode : Lossy
Stream size : 164 MiB (3%)
Title : MVO, Novamedia
Language : Russian
Default : No
Forced : No
Audio #4
ID : 5
Format : AC-3
Format/Info : Audio Coding 3
Mode extension : CM (complete main)
Format settings, Endianness : Big
Codec ID : A_AC3
Duration : 59 min 43 s
Bit rate mode : Constant
Bit rate : 384 kb/s
Channel(s) : 6 channels
Channel positions : Front: L C R, Side: L R, LFE
Sampling rate : 48.0 kHz
Frame rate : 31.250 FPS (1536 spf)
Compression mode : Lossy
Stream size : 164 MiB (3%)
Title : DVO, Кубик в кубе
Language : Russian
Default : No
Forced : No
Audio #5
ID : 6
Format : AC-3
Format/Info : Audio Coding 3
Mode extension : CM (complete main)
Format settings, Endianness : Big
Codec ID : A_AC3
Duration : 59 min 43 s
Bit rate mode : Constant
Bit rate : 384 kb/s
Channel(s) : 6 channels
Channel positions : Front: L C R, Side: L R, LFE
Sampling rate : 48.0 kHz
Frame rate : 31.250 FPS (1536 spf)
Compression mode : Lossy
Stream size : 164 MiB (3%)
Title : MVO, BaiBaKo
Language : Russian
Default : No
Forced : No
Audio #6
ID : 7
Format : AC-3
Format/Info : Audio Coding 3
Mode extension : CM (complete main)
Format settings, Endianness : Big
Codec ID : A_AC3
Duration : 59 min 43 s
Bit rate mode : Constant
Bit rate : 640 kb/s
Channel(s) : 6 channels
Channel positions : Front: L C R, Side: L R, LFE
Sampling rate : 48.0 kHz
Frame rate : 31.250 FPS (1536 spf)
Compression mode : Lossy
Stream size : 273 MiB (6%)
Language : English
Default : No
Forced : No
Text #1
ID : 8
Format : UTF-8
Codec ID : S_TEXT/UTF8
Codec ID/Info : UTF-8 Plain Text
Language : Russian
Default : No
Forced : No
Text #2
ID : 9
Format : UTF-8
Codec ID : S_TEXT/UTF8
Codec ID/Info : UTF-8 Plain Text
Language : English
Default : No
Forced : No
Menu
00:00:00.000 : en:Chapter 01
00:01:37.472 : en:Chapter 02
00:10:37.720 : en:Chapter 03
00:20:32.773 : en:Chapter 04
00:30:03.426 : en:Chapter 05
00:41:29.945 : en:Chapter 06
00:50:58.221 : en:Chapter 07
00:58:33.801 : en:Chapter 08

x264

1серия
x264 [info]: frame I:709 Avg QP:14.92 size:153872
x264 [info]: frame P:16076 Avg QP:16.29 size: 65041
x264 [info]: frame B:69930 Avg QP:18.41 size: 28234
x264 [info]: consecutive B-frames: 1.3% 0.8% 3.6% 7.9% 12.4% 64.9% 6.3% 1.1% 0.9% 0.9%
2серия
x264 [info]: frame I:661 Avg QP:14.72 size:152161
x264 [info]: frame P:15166 Avg QP:16.05 size: 61641
x264 [info]: frame B:68557 Avg QP:18.16 size: 25540
x264 [info]: consecutive B-frames: 1.1% 0.6% 2.5% 6.5% 11.2% 67.4% 7.1% 1.4% 1.0% 1.1%
3серия
x264 [info]: frame I:687 Avg QP:14.71 size:152996
x264 [info]: frame P:15208 Avg QP:16.12 size: 63368
x264 [info]: frame B:68509 Avg QP:18.26 size: 26868
x264 [info]: consecutive B-frames: 1.2% 0.6% 2.6% 6.2% 10.7% 68.4% 7.1% 1.1% 1.1% 1.0%
4серия
x264 [info]: frame I:753 Avg QP:16.10 size:170877
x264 [info]: frame P:15291 Avg QP:17.39 size: 75135
x264 [info]: frame B:64217 Avg QP:19.28 size: 35242
x264 [info]: consecutive B-frames: 1.7% 1.2% 4.3% 9.0% 13.1% 59.8% 7.2% 1.6% 1.1% 1.0%
5серия
x264 [info]: frame I:636 Avg QP:15.04 size:161739
x264 [info]: frame P:15305 Avg QP:16.23 size: 76184
x264 [info]: frame B:70033 Avg QP:18.26 size: 37491
x264 [info]: consecutive B-frames: 1.1% 0.5% 2.4% 4.7% 9.7% 71.9% 6.3% 1.4% 1.0% 1.1%
6серия
x264 [info]: frame I:716 Avg QP:15.21 size:167716
x264 [info]: frame P:15221 Avg QP:16.58 size: 74627
x264 [info]: frame B:69979 Avg QP:18.56 size: 35520
x264 [info]: consecutive B-frames: 1.2% 0.4% 2.0% 5.0% 9.9% 71.1% 7.0% 1.5% 1.0% 0.9%
7серия
x264 [info]: frame I:712 Avg QP:14.78 size:156896
x264 [info]: frame P:16502 Avg QP:16.11 size: 70230
x264 [info]: frame B:75293 Avg QP:18.15 size: 33638
x264 [info]: consecutive B-frames: 1.2% 0.5% 2.3% 4.5% 10.1% 71.7% 6.7% 1.2% 1.0% 0.8%
8серия
x264 [info]: frame I:1051 Avg QP:15.92 size:169133
x264 [info]: frame P:23640 Avg QP:17.16 size: 77694
x264 [info]: frame B:100349 Avg QP:19.23 size: 38255
x264 [info]: consecutive B-frames: 1.5% 1.1% 4.0% 8.2% 12.7% 62.8% 6.1% 1.5% 1.1% 1.0%

Скриншоты

[Профиль] [ЛС]
Кто просматривает тему:

Форум Тема Автор Размер
Rock (Альтернативный рок) Секунды - По-настоящему - 2016, MP3, 320 kbps достали все 61 MB
Chanson (Шансон) VA - Настоящий шансон. Зимний выпуск (2014) MP3 sergej644 1.41 GB
Chanson (Шансон) Сборник - Настоящий музон радио Шансон - 2015, MP3, VBR 192-320 kbps Magnat 670 MB
Discovery Discovery: Прошлое. Истоки настоящего / How We Got Here [сезон 1 серии 1-12 из 12] (Peter Karr) [2015 г., Доеументальный, постановочный, история техники, изобретений, SATRip] skorpionN 3.68 GB
Графические редакторы Hodilka Master 1.0 (редактор настольных игр) x86 [2015, RUS] TorrentFilm 6 MB
PBS PBS: Настоящий гений со Стивеном Хокингом / Genius by Stephen Hawking [серии 6 из 6] (Ben Bowie) [2016 г., Документальный, научно-познавательный, HDTVRip 720p] skorpionN 7.64 GB
Зарубежные мультфильмы Большая игра / Волшебный футбол / Настольный футбол / Metegol / Futbolin (2013) BDRip от New-Team | P | AlexFilm достали все 1.45 GB
Отечественная Классика Борис Полевой - Повесть о настоящем человеке (2015) MP3 Swager 660 MB
Показать сообщения:    

Текущее время: Сегодня 02:11

Часовой пояс: GMT



Вы не можете начинать темы
Вы не можете отвечать на сообщения
Вы не можете редактировать свои сообщения
Вы не можете удалять свои сообщения
Вы не можете голосовать в опросах
Вы не можете прикреплять файлы к сообщениям
Вы не можете скачивать файлы