Настоящее мужество / Железная хватка / True Grit (Итэн Коэн / Ethan Coen, Джоэл Коэн / Joel Coen) [2010 г., США, Драма, Приключения, Вестерн, BDRip] AVO (Карповский)

 
Автор Сообщение

painkiller ®

Стаж: 2 года 3 месяца

Сообщений: 582



Награды: Нет

Торрент-статистика

Создавать темы 15-Авг-2014 01:06

[Цитировать]

Настоящее мужество / Железная хватка / True Grit
Год выпуска: 2010
Страна: США
Жанр: Драма, Приключения, Вестерн
Продолжительность: 1:50:20
Перевод: Авторский (одноголосый закадровый), Антон Карповский
Cубтитры: нет
Режиссер: Итэн Коэн / Ethan Coen, Джоэл Коэн / Joel Coen
В ролях: Джефф Бриджес /Jeff Bridges/, Хейли Стайнфелд /Hailee Steinfeld/, Мэтт Дэймон /Matt Damon/, Джош Бролин /Josh Brolin/, Барри Пеппер /Barry Pepper/,
Описание: В этом фильме рассказывается история 14-летней девочки, стареющего судебного пристава Рустера Когберна и ещё одного законника. Вместе они идут по следам убийцы отца девочки, которые ведут во враждебную индейскую территорию.
Качество видео: BDRip
Формат: AVI
Видео кодек: XviD
Аудио кодек: AC3
Видео: 720x304, 23,976 fps, 1434 kbps
Аудио: 48000Hz, DD 5.1, 448 kbps
Скачать: SAMPLE 13.20MB
Доп. информация: За перевод, данного фильма у Антона Карповского, выражается благодарность пользователям форума hdtracker.
P.S.: Всех кто располагает переводами Антона Карповского попрошу в эту тему.

MediaInfo

Формат : AVI
Формат/Информация : Audio Video Interleave
Размер файла : 1,46 Гбайт
Продолжительность : 1 ч. 50 м.
Общий поток : 1891 Кбит/сек
Программа кодирования : VirtualDubMod 1.5.4.1 (build 2178/release)
Библиотека кодирования : VirtualDubMod build 2178/release
Видео
Идентификатор : 0
Формат : MPEG-4 Visual
Профиль формата : Advanced Simple@L5
Параметр BVOP формата : 1
Параметр QPel формата : Нет
Параметр GMC формата : Без точки перехода
Параметр матрицы формата : Выборочная
Идентификатор кодека : XVID
Идентификатор кодека/Подсказка : XviD
Продолжительность : 1 ч. 50 м.
Битрейт : 1434 Кбит/сек
Ширина : 720 пикселей
Высота : 304 пикселя
Соотношение сторон : 2,35:1
Частота кадров : 23,976 кадра/сек
Цветовое пространство : YUV
Субдискретизация насыщенности : 4:2:0
Битовая глубина : 8 бит
Тип развёртки : Прогрессивная
Метод сжатия : С потерями
Бит/(Пиксели*Кадры) : 0.273
Размер потока : 1,11 Гбайт (76%)
Библиотека кодирования : XviD 64
Аудио
Идентификатор : 1
Формат : AC-3
Формат/Информация : Audio Coding 3
Расширение режима : CM (complete main)
Параметр Endianness формата : Big
Идентификатор кодека : 2000
Продолжительность : 1 ч. 50 м.
Вид битрейта : Постоянный
Битрейт : 448 Кбит/сек
Каналы : 6 каналов
Расположение каналов : Front: L C R, Side: L R, LFE
Частота : 48,0 КГц
Битовая глубина : 16 бит
Метод сжатия : С потерями
Размер потока : 354 Мбайт (24%)
Выравнивание : Разделение по промежуткам
Продолжительность промежутка : 42 мс. (1,00 видеокадр)
Время предзагрузки промежутка : 500 мс.

Скриншоты

[Профиль] [ЛС]

Создавать темы 06-Авг-2015 23:13 (спустя 11 месяцев 22 дня)

Топик был перенесен из форума Фильмы до 2014 года в форум Фильмы до 2012 года
sergej644
 

Создавать темы 12-Июн-2016 07:54 (спустя 1 год 9 месяцев)

Топик был перенесен из форума Фильмы 2011 года в форум Фильмы 2010 года
Russian Mafia
 
Кто просматривает тему:

Форум Тема Автор Размер
Rock (Альтернативный рок) Секунды - По-настоящему - 2016, MP3, 320 kbps достали все 61 MB
Chanson (Шансон) VA - Настоящий шансон. Зимний выпуск (2014) MP3 sergej644 1.41 GB
Chanson (Шансон) Сборник - Настоящий музон радио Шансон - 2015, MP3, VBR 192-320 kbps Magnat 670 MB
Discovery Discovery: Прошлое. Истоки настоящего / How We Got Here [сезон 1 серии 1-12 из 12] (Peter Karr) [2015 г., Доеументальный, постановочный, история техники, изобретений, SATRip] skorpionN 3.68 GB
Графические редакторы Hodilka Master 1.0 (редактор настольных игр) x86 [2015, RUS] TorrentFilm 6 MB
PBS PBS: Настоящий гений со Стивеном Хокингом / Genius by Stephen Hawking [серии 6 из 6] (Ben Bowie) [2016 г., Документальный, научно-познавательный, HDTVRip 720p] skorpionN 7.64 GB
Зарубежные мультфильмы Большая игра / Волшебный футбол / Настольный футбол / Metegol / Futbolin (2013) BDRip от New-Team | P | AlexFilm достали все 1.45 GB
Отечественная Классика Борис Полевой - Повесть о настоящем человеке (2015) MP3 Swager 660 MB
Показать сообщения:    

Текущее время: Сегодня 09:58

Часовой пояс: GMT



Вы не можете начинать темы
Вы не можете отвечать на сообщения
Вы не можете редактировать свои сообщения
Вы не можете удалять свои сообщения
Вы не можете голосовать в опросах
Вы не можете прикреплять файлы к сообщениям
Вы не можете скачивать файлы