Настоящая Кровь. Прощальное Шоу / True Blood. A Farewell To Bon Temps (Крис Деннистон / Chris Denniston) [2015, Документальный, HDTV 720p] DVO (NOVAMEDiA)

 
Автор Сообщение

TorrentFilm ®

Пол:

Стаж: 2 года

Сообщений: 7741



Награды: Нет

Торрент-статистика

Создавать темы 25-Июн-2015 00:08

[Цитировать]

Настоящая Кровь. Прощальное Шоу / True Blood. A Farewell To Bon Temps- Год выпуска: 2015
Страна: США
Студия: HBO
Жанр: Документальный
Продолжительность: 0:26:25
Перевод: Профессиональный (двухголосый закадровый) | студия "NOVAMEDiA" по заказу "AMEDiA TV"
Режиссер: Крис Деннистон / Chris Denniston
Участники: Анна Пэкуин, Стивен Мойер, Александр Скарсгард, Сэм Трэммелл, Райан Квантен, Рутина Уэсли, Нелсан Эллис, Джим Пэррак, Дебора Энн Уолл, Дэнис О’Хэр-Описание: Документальный фильм о создании одного из самых успешных сериалов HBO.-Автор рипа: lrn
Автор записи: Alexin29
Сэмпл: sendfile-Тип релиза: HDTV 720p
Контейнер: MKV
Видео: 1280x720 (16:9), 25,000 fps, H264, ~4000 kbps avg, ~0.174 bit/pixel
Аудио#1: 48 kHz, AC3 Dolby Digital, 3/2 (L,C,R,l,r) + LFE ch, ~384.00 kbps avg | студия "NOVAMEDiA"
Аудио#2: 48 kHz, AC3 Dolby Digital, 2/0 (L,R) ch, ~192.00 kbps avg | Оригинал-

MediaInfo

GeneralUnique ID : 237690907349844736514522622222880852837 (0xB2D19A855B59845FABBE29E68151CB65)Complete name : E:\uTorrent.Temp\Temp\True.Blood.A.Farewell.To.Bon.Temps.2015.HDTV.720p.x264-RUS-ENG-lrn.mkvFormat : MatroskaFormat version : Version 4 / Version 2File size : 865 MiBDuration : 26mn 25sOverall bit rate : 4 576 KbpsMovie name : True.Blood.A.Farewell.To.Bon.Temps.2015.HDTV.720p.x264-RUS-ENG-lrnEncoded date : UTC 2010-02-22 21:41:31Writing application : mkvmerge v5.9.0 ('On The Loose') built on Dec 9 2012 15:37:01Writing library : libebml v1.3.0 + libmatroska v1.4.0
VideoID : 1Format : AVCFormat/Info : Advanced Video CodecFormat profile : High@L4.1Format settings, CABAC : YesFormat settings, ReFrames : 8 framesCodec ID : V_MPEG4/ISO/AVCDuration : 26mn 25sBit rate : 4 000 KbpsWidth : 1 280 pixelsHeight : 720 pixelsDisplay aspect ratio : 16:9Frame rate mode : ConstantFrame rate : 25.000 fpsColor space : YUVChroma subsampling : 4:2:0Bit depth : 8 bitsScan type : ProgressiveBits/(Pixel*Frame) : 0.174Stream size : 739 MiB (85%)Writing library : x264 core 142 r2479 dd79a61Encoding settings : cabac=1 / ref=8 / deblock=1:-3:-3 / analyse=0x3:0x113 / me=umh / subme=9 / psy=1 / psy_rd=1.00:0.00 / mixed_ref=1 / me_range=32 / chroma_me=1 / trellis=2 / 8x8dct=1 / cqm=0 / deadzone=21,11 / fast_pskip=1 / chroma_qp_offset=-4 / threads=12 / lookahead_threads=2 / sliced_threads=0 / nr=0 / decimate=1 / interlaced=0 / bluray_compat=0 / constrained_intra=0 / bframes=8 / b_pyramid=2 / b_adapt=2 / b_bias=0 / direct=1 / weightb=1 / open_gop=0 / weightp=2 / keyint=250 / keyint_min=25 / scenecut=40 / intra_refresh=0 / rc_lookahead=50 / rc=2pass / mbtree=1 / bitrate=4000 / ratetol=1.0 / qcomp=0.60 / qpmin=0 / qpmax=69 / qpstep=4 / cplxblur=20.0 / qblur=0.5 / vbv_maxrate=62500 / vbv_bufsize=78125 / nal_hrd=none / filler=0 / ip_ratio=1.40 / aq=1:1.00Default : YesForced : NoColor range : LimitedColor primaries : BT.709Transfer characteristics : BT.709Matrix coefficients : BT.709
Audio #1ID : 2Format : AC-3Format/Info : Audio Coding 3Mode extension : CM (complete main)Format settings, Endianness : BigCodec ID : A_AC3Duration : 26mn 25sBit rate mode : ConstantBit rate : 384 KbpsChannel(s) : 6 channelsChannel positions : Front: L C R, Side: L R, LFESampling rate : 48.0 KHzCompression mode : LossyDelay relative to video : -80msStream size : 72.6 MiB (8%)Language : RussianDefault : YesForced : Yes
Audio #2ID : 3Format : AC-3Format/Info : Audio Coding 3Mode extension : CM (complete main)Format settings, Endianness : BigCodec ID : A_AC3Duration : 26mn 25sBit rate mode : ConstantBit rate : 192 KbpsChannel(s) : 2 channelsChannel positions : Front: L RSampling rate : 48.0 KHzCompression mode : LossyDelay relative to video : -80msStream size : 36.3 MiB (4%)Language : EnglishDefault : NoForced : No

x264 log

raw [info]: 1280x720p 1:1 @ 25/1 fps (cfr)x264 [info]: using SAR=1/1x264 [info]: using cpu capabilities: MMX2 SSE2Fast SSSE3 SSE4.2 AVXx264 [info]: profile High, level 4.1x264 [info]: frame I:547 Avg QP:14.42 size:118393x264 [info]: frame P:8779 Avg QP:17.36 size: 42201x264 [info]: frame B:30320 Avg QP:19.83 size: 11788x264 [info]: consecutive B-frames: 2.7% 1.9% 5.3% 27.7% 28.9% 27.7% 4.3% 1.1% 0.4%x264 [info]: mb I I16..4: 7.3% 74.5% 18.1%x264 [info]: mb P I16..4: 3.9% 12.1% 1.1% P16..4: 38.5% 24.3% 12.2% 0.0% 0.0% skip: 7.8%x264 [info]: mb B I16..4: 0.3% 0.9% 0.1% B16..8: 39.0% 8.1% 1.8% direct: 9.1% skip:40.7% L0:42.1% L1:46.1% BI:11.9%x264 [info]: 8x8 transform intra:70.9% inter:64.7%x264 [info]: coded y,uvDC,uvAC intra: 64.3% 85.8% 71.1% inter: 25.7% 30.1% 4.6%x264 [info]: i16 v,h,dc,p: 58% 12% 9% 21%x264 [info]: i8 v,h,dc,ddl,ddr,vr,hd,vl,hu: 13% 9% 14% 8% 11% 12% 11% 11% 12%x264 [info]: i4 v,h,dc,ddl,ddr,vr,hd,vl,hu: 13% 9% 7% 9% 14% 14% 12% 11% 12%x264 [info]: i8c dc,h,v,p: 48% 21% 18% 12%x264 [info]: Weighted P-Frames: Y:3.7% UV:3.0%x264 [info]: ref P L0: 48.2% 10.0% 20.7% 6.6% 5.6% 3.5% 3.3% 1.9% 0.1% 0.0%x264 [info]: ref B L0: 83.7% 9.4% 3.2% 1.6% 1.1% 0.6% 0.3%x264 [info]: ref B L1: 95.8% 4.2%x264 [info]: kb/s:3998.64encoded 39647 frames, 13.67 fps, 3998.64 kb/s

Скриншоты

-
[Профиль] [ЛС]
Кто просматривает тему:

Форум Тема Автор Размер
Rock (Альтернативный рок) Секунды - По-настоящему - 2016, MP3, 320 kbps достали все 61 MB
Chanson (Шансон) VA - Настоящий шансон. Зимний выпуск (2014) MP3 sergej644 1.41 GB
Chanson (Шансон) Сборник - Настоящий музон радио Шансон - 2015, MP3, VBR 192-320 kbps Magnat 670 MB
Discovery Discovery: Прошлое. Истоки настоящего / How We Got Here [сезон 1 серии 1-12 из 12] (Peter Karr) [2015 г., Доеументальный, постановочный, история техники, изобретений, SATRip] skorpionN 3.68 GB
Графические редакторы Hodilka Master 1.0 (редактор настольных игр) x86 [2015, RUS] TorrentFilm 6 MB
PBS PBS: Настоящий гений со Стивеном Хокингом / Genius by Stephen Hawking [серии 6 из 6] (Ben Bowie) [2016 г., Документальный, научно-познавательный, HDTVRip 720p] skorpionN 7.64 GB
Зарубежные мультфильмы Большая игра / Волшебный футбол / Настольный футбол / Metegol / Futbolin (2013) BDRip от New-Team | P | AlexFilm достали все 1.45 GB
Отечественная Классика Борис Полевой - Повесть о настоящем человеке (2015) MP3 Swager 660 MB
Показать сообщения:    

Текущее время: Сегодня 14:27

Часовой пояс: GMT



Вы не можете начинать темы
Вы не можете отвечать на сообщения
Вы не можете редактировать свои сообщения
Вы не можете удалять свои сообщения
Вы не можете голосовать в опросах
Вы не можете прикреплять файлы к сообщениям
Вы не можете скачивать файлы