Наследники (2015) WEB-DL 1080p

 
Автор Сообщение

достали все ®

Пол:

Стаж: 1 год 8 месяцев

Сообщений: 6577



Награды: 12 (Подробнее)

Mega Seeder 5 (Количество: 1) Mega Seeder 3 (Количество: 1) Top Releaser 4 (Количество: 1)
Торрент-статистика

Создавать темы 06-Янв-2016 16:55

[Цитировать]

Производство: Россия, ДA-Cтудия, Рой
Жанр: Драма
Режиссер: Владимир Хотиненко
Продюсер: Владимир Хотиненко, Вера Малышева
Актеры: Леонид Бичевин, Александр Балуев, Анатолий Белый, Агриппина Стеклова, Александр Коротков, Алла Юганова, Наталья Курдюбова, Алексей Кирсанов, Сергей Качанов, Артур Мухамадияров
Описание:
Большая часть действия фильма происходит в студии ток-шоу, где политолог, патриот, попдива и другие персонажи во главе с ведущим обсуждают фигуру и наследие преподобного Сергия Радонежского. В разгар записи Ведущий неожиданно узнает, что его программу закрывают. Решив, что терять ему нечего, Ведущий идёт ва-банк и стремится прежде всего «разоблачить» — церковь, власть, своих собеседников… Но эффект оказывается совсем не тот, на который он рассчитывал. В пылу оживленной и даже яростной полемики мы начинаем прозревать подлинного Сергия Радонежского, а в эпизодах истории как в зеркале угадываем проблемы современной России…

Возраст: 16+
Дата мировой премьеры: 19 сентября 2015
Дата премьеры в России: 5 ноября 2015, «Ливандия Энтертейнмент»
Продолжительность: 01:42:44
Качество видео: WEB-DL 1080p
Перевод: Не требуется (русский)
Вид субтитров: Отсутствуют
Реклама: Возможно присутствуют голосовые вставки рекламы
Видео: AVC/H.264, 1920x800 (2.40:1), 5120 kb/s
Аудио: 48 kHz, AC3 Dolby Digital, 2/0 (L,R) ch, ~192 kbps
Семпл: Скачать--

MI

Общее
Уникальный идентификатор : 172790242959733326214070033458790282776 (0x81FE30B797DAB0C09CDCB2D24BEE3618)
Полное имя : D:РелизыНаследники.2015.WEB-DL.[1080p].nnm-club.mkv
Формат : Matroska
Версия формата : Version 2
Размер файла : 3,81 Гбайт
Продолжительность : 1 ч. 42 м.
Общий поток : 5306 Кбит/сек
Название фильма : Наследники.2015.WEB-DL.[1080p].nnm-club
Дата кодирования : UTC 2016-01-05 14:25:32
Программа кодирования : mkvmerge v8.3.0 ('Over the Horizon') 64bit
Библиотека кодирования : libebml v1.3.1 + libmatroska v1.4.2
DURATION : 01:42:44.512000000
NUMBER_OF_FRAMES : 192641
NUMBER_OF_BYTES : 147948288
_STATISTICS_WRITING_APP : mkvmerge v8.3.0 ('Over the Horizon') 64bit
_STATISTICS_WRITING_DATE_UTC : 2016-01-05 14:25:32
_STATISTICS_TAGS : BPS DURATION NUMBER_OF_FRAMES NUMBER_OF_BYTES
Видео
Идентификатор : 1
Формат : AVC
Формат/Информация : Advanced Video Codec
Профиль формата : High@L4
Параметр CABAC формата : Да
Параметр ReFrames формата : 4 кадра
Идентификатор кодека : V_MPEG4/ISO/AVC
Продолжительность : 1 ч. 42 м.
Битрейт : 5120 Кбит/сек
Ширина : 1920 пикселей
Высота : 800 пикселей
Соотношение сторон : 2,40:1
Режим частоты кадров : Постоянный
Частота кадров : 25,000 кадров/сек
Цветовое пространство : YUV
Субдискретизация насыщенности : 4:2:0
Битовая глубина : 8 бит
Тип развёртки : Прогрессивная
Бит/(Пиксели*Кадры) : 0.133
Размер потока : 3,59 Гбайт (94%)
Заголовок : Наследники.2015.WEB-DL.[1080p].nnm-club
Библиотека кодирования : x264 core 142
Настройки программы : cabac=1 / ref=3 / deblock=1:0:0 / analyse=0x3:0x113 / me=hex / subme=7 / psy=1 / psy_rd=1.00:0.00 / mixed_ref=1 / me_range=16 / chroma_me=1 / trellis=1 / 8x8dct=1 / cqm=0 / deadzone=21,11 / fast_pskip=1 / chroma_qp_offset=-2 / threads=48 / lookahead_threads=6 / sliced_threads=0 / nr=0 / decimate=1 / interlaced=0 / bluray_compat=0 / constrained_intra=0 / bframes=6 / b_pyramid=2 / b_adapt=1 / b_bias=0 / direct=1 / weightb=1 / open_gop=0 / weightp=2 / keyint=200 / keyint_min=20 / scenecut=0 / intra_refresh=0 / rc_lookahead=40 / rc=2pass / mbtree=1 / bitrate=5120 / ratetol=1.0 / qcomp=0.60 / qpmin=0 / qpmax=69 / qpstep=4 / cplxblur=20.0 / qblur=0.5 / vbv_maxrate=7680 / vbv_bufsize=20480 / nal_hrd=none / filler=0 / ip_ratio=1.40 / aq=1:1.00
Язык : English
Default : Да
Forced : Нет
Аудио
Идентификатор : 2
Формат : AC-3
Формат/Информация : Audio Coding 3
Расширение режима : CM (complete main)
Параметр Endianness формата : Big
Идентификатор кодека : A_AC3
Продолжительность : 1 ч. 42 м.
Вид битрейта : Постоянный
Битрейт : 192 Кбит/сек
Каналы : 2 канала
Расположение каналов : Front: L R
Частота : 48,0 КГц
Метод сжатия : С потерями
Размер потока : 141 Мбайт (4%)
Язык : Russian
Default : Да
Forced : Нет
-- --
[Профиль] [ЛС]
Кто просматривает тему:

Форум Тема Автор Размер
National Geographic NG: Панорама 360° Объект всемирного наследия / Access 360° World Heritage [сезоны 1-7(10) 2-7(9)] (Kate Siney, Aditya Thayi...) [2012-2014 г., Документальный, научно-познавательный HDTVRip] skorpionN 8.72 GB
Фантастика и фэнтези Александр Прозоров - Руссы 1. Наследник (2016) MP3 Swager 664 MB
История, биографии, религия и искусство Анисимов Евгений - Россия в середине восемнадцатого века. Борьба за наследие Петра [Иванова Маргарита, 2015] Magnat 668 MB
Фильмы 2011 года Благородное наследие / Мирча / Mircea / (1989) DVDRip | D sergej644 2.06 GB
Фильмы (HD Rips | 720p, 1080p) Бригада. Наследник / Бригада 2 (Денис Алексеев) [2012 г., Россия, боевик, криминал, BDRip 1080p] TorrentFilm 9.65 GB
Фильмы (HD DVD, Blu-ray и BDRemux) Бригада. Наследник / Бригада 2 (Денис Алексеев) [2012, Россия, боевик, криминал, BDRip 720p] painkiller 4.96 GB
Фильмы (HD DVD, Blu-ray и BDRemux) Бригада: Наследник (Денис Алексеев) [2012, Россия, боевик, криминал, Blu-ray Disc 1080p] painkiller 17.43 GB
Фильмы (DVD 5/9) Бригада: Наследник (Денис Алексеев) [2012, Россия, боевик, криминал, DVD5] R5 Original Rus TorrentFilm 4.36 GB
Показать сообщения:    

Текущее время: Сегодня 06:14

Часовой пояс: GMT



Вы не можете начинать темы
Вы не можете отвечать на сообщения
Вы не можете редактировать свои сообщения
Вы не можете удалять свои сообщения
Вы не можете голосовать в опросах
Вы не можете прикреплять файлы к сообщениям
Вы не можете скачивать файлы