Наследники / Descendants (Кенни Ортега / Kenny Ortega) [2015, США, фэнтези, комедия, приключения, DVB] Dub (Невафильм)

 
Автор Сообщение

TorrentFilm ®

Пол:

Стаж: 2 года

Сообщений: 7741



Награды: Нет

Торрент-статистика

Создавать темы 17-Окт-2015 10:14

[Цитировать]

Наследники / Descendants- -Страна: США
Жанр: фэнтези, комедия, приключения
Год выпуска: 2015
Продолжительность: 01:51:53-Перевод: Профессиональный (дублированный) [Невафильм]
Cубтитры: нет
Оригинальная аудиодорожка: нет-Режиссер: Кенни Ортега / Kenny Ortega-В ролях: Дав Камерон, Кэмерон Бойс, Бу Бу Стюарт, София Карсон, Митчелл Хоуп-Описание: После прихода к власти молодой монарх выдает новый указ – «амнистию», по которой всем наследникам известных злодеев, которые находятся в заточении на острове, дается второй шанс. Всех отправляют в школу, в которой учатся дети Белоснежки, Рапунцель и других позитивных героев. Тут второму поколению предстоит определить для себя – продолжать дело родителей, или же начать все с чистого листа.-Семпл: Скачать-Качество видео: DVB
Формат видео: TS-Видео: 720x576 (16:9) @ 1024x576, 25.000 fps, MPEG-2 Video, ~3100 Kbps, 0.299 bits/pixel
Аудио: 48.0 KHz, MPEG-1 Audio layer 2, 2 ch, 192 Kbps

MediaInfo

Complete name : E:\Descendants.2015.DVB.Rus.ts
Format : MPEG-TS
File size : 2.60 GiB
Duration : 1h 47mn
Overall bit rate mode : Variable
Overall bit rate : 3 466 Kbps
Maximum Overall bit rate : 35.5 Mbps
Video
ID : 4113 (0x1011)
Menu ID : 1 (0x1)
Format : MPEG Video
Format version : Version 2
Format profile : Main@Main
Format settings, BVOP : Yes
Format settings, Matrix : Custom
Format settings, GOP : Variable
Format settings, picture st : Frame
Codec ID : 2
Duration : 1h 47mn
Bit rate mode : Variable
Bit rate : 3 100 Kbps
Maximum bit rate : 3 350 Kbps
Width : 720 pixels
Height : 576 pixels
Display aspect ratio : 16:9
Active Format Description : Letterbox 16:9 image (top)
Frame rate : 25.000 fps
Standard : PAL
Color space : YUV
Chroma subsampling : 4:2:0
Bit depth : 8 bits
Scan type : Interlaced
Scan order : Top Field First
Compression mode : Lossy
Bits/(Pixel*Frame) : 0.299
Time code of first frame : 00:00:00:00
Time code source : Group of pictures header
GOP, Open/Closed : Open
Stream size : 2.32 GiB (89%)
Audio
ID : 4352 (0x1100)
Menu ID : 1 (0x1)
Format : MPEG Audio
Format version : Version 1
Format profile : Layer 2
Mode : Joint stereo
Mode extension : Intensity Stereo + MS Stereo
Codec ID : 4
Duration : 1h 47mn
Bit rate mode : Constant
Bit rate : 192 Kbps
Channel(s) : 2 channels
Sampling rate : 48.0 KHz
Compression mode : Lossy
Delay relative to video : 14ms
Stream size : 147 MiB (6%)
Language : Russian

Скриншот c названием фильма

Скриншоты

[Профиль] [ЛС]
Кто просматривает тему:

Форум Тема Автор Размер
National Geographic NG: Панорама 360° Объект всемирного наследия / Access 360° World Heritage [сезоны 1-7(10) 2-7(9)] (Kate Siney, Aditya Thayi...) [2012-2014 г., Документальный, научно-познавательный HDTVRip] skorpionN 8.72 GB
Фантастика и фэнтези Александр Прозоров - Руссы 1. Наследник (2016) MP3 Swager 664 MB
История, биографии, религия и искусство Анисимов Евгений - Россия в середине восемнадцатого века. Борьба за наследие Петра [Иванова Маргарита, 2015] Magnat 668 MB
Фильмы 2011 года Благородное наследие / Мирча / Mircea / (1989) DVDRip | D sergej644 2.06 GB
Фильмы (HD Rips | 720p, 1080p) Бригада. Наследник / Бригада 2 (Денис Алексеев) [2012 г., Россия, боевик, криминал, BDRip 1080p] TorrentFilm 9.65 GB
Фильмы (HD DVD, Blu-ray и BDRemux) Бригада. Наследник / Бригада 2 (Денис Алексеев) [2012, Россия, боевик, криминал, BDRip 720p] painkiller 4.96 GB
Фильмы (HD DVD, Blu-ray и BDRemux) Бригада: Наследник (Денис Алексеев) [2012, Россия, боевик, криминал, Blu-ray Disc 1080p] painkiller 17.43 GB
Фильмы (DVD 5/9) Бригада: Наследник (Денис Алексеев) [2012, Россия, боевик, криминал, DVD5] R5 Original Rus TorrentFilm 4.36 GB
Показать сообщения:    

Текущее время: Сегодня 04:13

Часовой пояс: GMT



Вы не можете начинать темы
Вы не можете отвечать на сообщения
Вы не можете редактировать свои сообщения
Вы не можете удалять свои сообщения
Вы не можете голосовать в опросах
Вы не можете прикреплять файлы к сообщениям
Вы не можете скачивать файлы