Насекомые / Hmyz (2018) WEBRip 1080p | GreenРай Studio

 
Автор Сообщение

BOSS ®

Пол:

Стаж: 3 года 10 месяцев

Сообщений: 11593

Откуда: ODESSA



Награды: 22 (Подробнее)

Mega Seeder 4 (Количество: 1) Mega Releaser 3 (Количество: 1) Top Keeper 1 (Количество: 1)
Торрент-статистика

Создавать темы 09-Авг-2018 17:41

[Цитировать]

Информация о фильме
Год выхода: 2018
Наименование: Насекомые
Оригинальное наименование: Hmyz
Страна: Чехия, Словакия
Жанр: драма, комедия
Режиссер постановщик: Ян Шванкмайер
В главных ролях: Иржи Лабус, Ян Бударж, Камила Магалова, Яромир Дулава, Норберт Лихий, Ивана Углиржова
О фильме: Труппа начинающих актеров репетирует пьесу «Из жизни насекомых», постепенно превращаясь в ее персонажей.

Файл
Качество: WEBRip 1080p
Видео данные: MKV, 1792x1080 (5:3), 25.000 fps, 4000 Кбит/с
Аудио данные: AC3, 2 ch, 384 Кбит/с
Перевод: Любительский многоголосый (GreenРай Studio)
Продолжительность: 01:32:27

Медиаинфо

General
Unique ID : 182859493034275470776345893737709319409 (0x89917513409C14C686D09DC5BA1234F1)
Complete name : D:ГРИНРАЙHmyz.2018.P.WEB-DL.1080p.mkv
Format : Matroska
Format version : Version 4 / Version 2
File size : 2.86 GiB
Duration : 1 h 34 min
Overall bit rate mode : Constant
Overall bit rate : 4 336 kb/s
Encoded date : UTC 2018-08-01 10:19:51
Writing application : mkvmerge v6.5.0 ('Isn't she lovely') built on Oct 20 2013 12:50:05
Writing library : libebml v1.3.0 + libmatroska v1.4.1
Video
ID : 1
Format : AVC
Format/Info : Advanced Video Codec
Format profile : Main@L4
Format settings : CABAC / 3 Ref Frames
Format settings, CABAC : Yes
Format settings, RefFrames : 3 frames
Format settings, GOP : M=1, N=15
Codec ID : V_MPEG4/ISO/AVC
Duration : 1 h 34 min
Bit rate mode : Constant
Bit rate : 4 000 kb/s
Width : 1 792 pixels
Height : 1 080 pixels
Display aspect ratio : 5:3
Frame rate mode : Constant
Frame rate : 25.000 FPS
Standard : NTSC
Color space : YUV
Chroma subsampling : 4:2:0
Bit depth : 8 bits
Scan type : Progressive
Bits/(Pixel*Frame) : 0.083
Stream size : 2.55 GiB (89%)
Language : English
Default : Yes
Forced : No
Color range : Limited
Audio
ID : 2
Format : AC-3
Format/Info : Audio Coding 3
Codec ID : A_AC3
Duration : 1 h 34 min
Bit rate mode : Constant
Bit rate : 384 kb/s
Channel(s) : 2 channels
Channel positions : Front: L R
Sampling rate : 48.0 kHz
Frame rate : 31.250 FPS (1536 SPF)
Bit depth : 16 bits
Compression mode : Lossy
Stream size : 259 MiB (9%)
Service kind : Complete Main
Default : Yes
Forced : No
Внимание, имеется видео и аудио реклама от спонсора показа

Скриншоты

Релиз от:
[Профиль] [ЛС]
Кто просматривает тему:

Форум Тема Автор Размер
Nat Geo Wild Nat Geo Wild: Удивительные насекомые / Incredible Insects (Jessica Connell) [2015 г., Документальный, научно-познавательный, HDTVRip 720p] skorpionN 1.65 GB
BBC ВВС. Вивисекция. Как устроены насекомые / ВВС: Insect Dissection: How Insects Work (Нэйтан Бадд / Nathan Budd) [2012, Документальный, энтомология, исследование, SATRip] reversefile 694 MB
Документальные HD Вивисекция. Как устроены насекомые / BBC. Insect Dissection: How Insects Work (Нэйтан Бадд / Nathan Budd) [2013, документальный, HDTVRip 720p] TorrentFilm 1.35 GB
Флора и фауна Маленькие но значительные: Насекомые / Little Matters: Insects (Альваро Мендоза / Alvaro Mendoza) [2014 г., Документальный, насекомые, природа, HDTVRip 720p] skorpionN 1.64 GB
Фильмы (HD Rips | 720p, 1080p) Насекомые / Hmyz (2018) WEBRip 720p | GreenРай Studio BOSS 2.97 GB
Фильмы 2018 года Насекомые / Hmyz (2018) WEBRip | GreenРай Studio BOSS 1.37 GB
Флора и фауна Насекомые или миллиметровый мир / Insects. The World of Millimeters [серии 1-2 из 2] (Gyu-Seop KIM, Hyeon-Sang SIN) [2014 г., Документальный, познавательный, флора, фауна, HDTVRip-AVC 720p] skorpionN 3.48 GB
Документальные HD Секреты шмелей / Secrets of bumblebees (Курт Мундл) [2013, Документальный, насекомые, познавательный, HDTVRip 720p] TorrentFilm 1.61 GB
Показать сообщения:    

Текущее время: Сегодня 14:50

Часовой пояс: GMT



Вы не можете начинать темы
Вы не можете отвечать на сообщения
Вы не можете редактировать свои сообщения
Вы не можете удалять свои сообщения
Вы не можете голосовать в опросах
Вы не можете прикреплять файлы к сообщениям
Вы не можете скачивать файлы